<?xml version="1.0" encoding="UTF-8" standalone="no"?> <svg xmlns="http://www.w3.org/2000/svg" xmlns:xlink="http://www.w3.org/1999/xlink" version="1.1"><metadata> Created by FontForge 20170731 at Tue May 25 13:37:06 2010 By Aleksey,,, Copyright 1997 Monotype Imaging Inc. All rights reserved. </metadata><defs><font id="Cachet-Book"><glyph glyph-name=".notdef" d="M51 0v1536h922v-1536h-922zM179 128h666v1280h-666v-1280z"></glyph><glyph glyph-name=".null"></glyph><glyph glyph-name="nonmarkingreturn"></glyph><glyph glyph-name="space" unicode=" "></glyph><glyph glyph-name="exclam" unicode="!" d="M371 1317v-2v-2l-21 -928q-2 -36 -10.5 -47.5t-34.5 -11.5h-33q-48 0 -58.5 9t-12.5 50l-19 928v6v2q0 30 10.5 38.5t43.5 8.5h90q45 0 45 -51zM424 86q0 -15 -10 -27l-111 -110q-10 -10 -24 -10q-17 0 -27 10l-111 110q-10 12 -10 27t10 27l111 110q10 10 24 10 q17 0 27 -10l111 -110q10 -12 10 -27z"></glyph><glyph glyph-name="quotedbl" unicode="&quot;" d="M545 1507v-2v-6l-21 -270q-3 -37 -10.5 -48.5t-34.5 -11.5h-30q-28 0 -39.5 11t-14.5 49l-20 270v12q0 27 11 35t42 8h72q20 0 32.5 -13t12.5 -34zM268 1507v-2v-6l-20 -270q-3 -37 -11 -48.5t-34 -11.5h-31q-29 0 -39.5 11.5t-13.5 48.5l-21 270v14q0 27 11.5 34t42.5 7 h69q47 0 47 -47z"></glyph><glyph glyph-name="numbersign" unicode="#" d="M1016 952l-27 -123h-135l-68 -301h132l-27 -122h-131l-76 -343h-135l76 343h-320l-78 -343h-139l80 343h-139l28 122h138l67 301h-137l29 123h135l78 340h135l-74 -340h322l73 340h135l-77 -340h135zM719 829h-320l-67 -301h321z"></glyph><glyph glyph-name="dollar" unicode="$" d="M909 408q0 -92 -6.5 -166.5t-28.5 -116.5q-36 -73 -113 -104.5t-177 -36.5v-127q0 -34 -9.5 -47t-35.5 -13h-31q-28 0 -34.5 9t-6.5 51v125q-132 2 -277 16q-42 3 -56.5 10.5t-14.5 28.5v72q0 38 6.5 52.5t34.5 14.5q36 0 89.5 -5t91 -7.5t126.5 -3.5v465q-76 32 -100 45 q-109 51 -155 87t-62.5 96t-16.5 181q0 67 4 111.5t21 88.5t53 75q43 40 102.5 55t153.5 18v129q0 36 10 46t43 10h19q45 0 45 -56v-129q84 0 227 -10q42 -3 57 -10t15 -29v-71q0 -41 -6.5 -54.5t-34.5 -13.5q-34 0 -54.5 2.5t-56 5t-110.5 2.5h-37v-422l4 -2 q167 -84 218 -116.5t77 -88t26 -167.5zM467 834v372q-66 -1 -95.5 -21t-36.5 -56.5t-7 -114.5q0 -51 5.5 -77.5t24 -44t62.5 -38.5q12 -5 26 -11zM715 334q0 87 -4.5 122.5t-23.5 57.5t-66 43l-37 16v-411q74 6 102.5 41.5t28.5 130.5z"></glyph><glyph glyph-name="percent" unicode="%" d="M682 1077q0 -163 -73.5 -240t-227.5 -77q-142 0 -212.5 78.5t-70.5 236.5q0 159 70.5 237.5t214.5 78.5q78 0 133.5 -20t93 -59.5t55 -97.5t17.5 -137zM532 1071q0 101 -26 146q-14 25 -38.5 34t-80.5 9q-55 0 -77.5 -8.5t-39.5 -34.5q-22 -42 -22 -142q0 -97 22 -143 q17 -25 42 -34t77 -9q55 0 79 9.5t38 33.5q26 47 26 139zM1157 1391q0 -7 -4 -15l-741 -1442q-6 -16 -25 -16q-6 0 -14 4l-56 31q-16 6 -16 27q0 6 4 14l742 1442q6 16 26 16q4 0 12 -4l56 -31q16 -6 16 -26zM1350 297q0 -162 -74 -241t-227 -79q-283 0 -283 316 q0 157 71.5 236t215.5 79q297 0 297 -311zM1200 291q0 100 -24 145q-13 24 -36.5 33.5t-82.5 9.5q-57 0 -80.5 -9.5t-36.5 -33.5q-25 -44 -25 -143q0 -100 25 -141q13 -25 37.5 -34t81.5 -9q54 0 78.5 9t38.5 34q24 42 24 139z"></glyph><glyph glyph-name="ampersand" unicode="&amp;" d="M1268 82q0 -14 -13 -27l-38 -47q-31 -35 -39 -35q-10 0 -27 17q-94 82 -143 131q-60 -89 -155.5 -121.5t-221.5 -32.5q-105 0 -184 11.5t-143 48.5t-100 107.5t-36 184.5q0 168 58 255.5t206 160.5q-86 95 -131 179.5t-45 189.5q0 289 342 289q137 0 216.5 -24.5 t119 -88.5t39.5 -182q0 -92 -30.5 -158t-91 -120.5t-173.5 -125.5q60 -74 152 -172.5t145 -146.5q34 98 51 284q1 18 9.5 23.5t27.5 5.5h78q17 0 21.5 -10t4.5 -41q0 -54 -10 -129t-28.5 -140.5t-41.5 -111.5q96 -90 144 -133q37 -35 37 -41zM801 1098q0 85 -41.5 115 t-161.5 30q-88 0 -124 -34t-36 -124q0 -41 16 -88t48.5 -93.5t75.5 -84.5q73 37 121.5 72t75 84.5t26.5 122.5zM897 231q-75 70 -131 127.5t-126 137.5t-108 125q-94 -62 -122.5 -85.5t-44 -68.5t-15.5 -131q0 -99 30 -144.5t86 -57t165 -11.5q106 0 167.5 22.5t98.5 85.5z "></glyph><glyph glyph-name="quotesingle" unicode="'" d="M268 1507v-2v-6l-20 -270q-3 -37 -11 -48.5t-34 -11.5h-31q-29 0 -39.5 11.5t-13.5 48.5l-21 270v14q0 27 11.5 34t42.5 7h69q47 0 47 -47z"></glyph><glyph glyph-name="parenleft" unicode="(" d="M594 -276q-123 3 -205.5 40t-130.5 134q-67 135 -89 345.5t-22 438.5q0 86 4 190.5t16 218.5t35 211.5t56 163.5q49 100 133 138t203 41v-175q-109 -1 -158.5 -56.5t-75.5 -172.5q-28 -125 -34.5 -248.5t-6.5 -308.5t6.5 -308.5t34.5 -248.5q27 -118 76.5 -173t157.5 -56 v-174z"></glyph><glyph glyph-name="parenright" unicode=")" d="M426 682q0 -120 -3 -212.5t-14.5 -199.5t-34 -205t-57.5 -167q-46 -97 -129 -134t-208 -40v174q74 1 119.5 27.5t71.5 76t44 125.5q41 189 41 557t-41 557q-26 116 -77 172t-158 57v175q121 -3 205 -41t132 -138q47 -92 70.5 -228t31 -274t7.5 -282z"></glyph><glyph glyph-name="asterisk" unicode="*" d="M631 1225q0 -11 -6.5 -17t-20.5 -14l-117 -68l103 -61q37 -22 37 -41q0 -11 -11 -31l-16 -30q-18 -31 -29 -31q-10 0 -36 16l-109 66v-123q0 -35 -9 -47.5t-36 -12.5h-33q-31 0 -38 9.5t-7 42.5v131l-102 -62q-27 -16 -39 -16q-17 0 -33 27l-18 30q-13 22 -13 33 q0 17 33 35l109 63l-105 64q-35 20 -35 39q0 12 15 37l18 32q11 23 25 23q4 0 28 -12l117 -70v127q0 35 9.5 45t41.5 10h37q23 0 29 -8.5t6 -34.5v-139l106 63q25 15 35 15t18 -8t19 -27l19 -31q8 -13 8 -24z"></glyph><glyph glyph-name="plus" unicode="+" d="M961 416h-355v-355h-151v355h-357v149h357v355h151v-355h355v-149z"></glyph><glyph glyph-name="comma" unicode="," d="M420 115v-2q0 -34 -45 -120t-101.5 -177t-80.5 -129q-21 -31 -41 -31q-14 0 -29 10l-41 29q-12 7 -12 22q0 9 34.5 58.5t57.5 87.5q45 74 71 133l-96 88q-10 8 -10 25q0 15 10 28l107 117q9 12 22 12q15 0 27 -12l117 -109q10 -8 10 -30v0z"></glyph><glyph glyph-name="hyphen" unicode="-" d="M797 545q0 -50 -8.5 -62t-49.5 -12h-567q-34 0 -43.5 10.5t-9.5 44.5v60q0 47 53 47h567q35 0 46.5 -9.5t11.5 -37.5v-41z"></glyph><glyph glyph-name="period" unicode="." d="M391 86q0 -15 -10 -27l-111 -110q-10 -10 -24 -10q-17 0 -27 10l-110 110q-11 11 -11 27t11 27l110 110q10 10 25 10q16 0 26 -10l111 -110q10 -12 10 -27z"></glyph><glyph glyph-name="slash" unicode="/" d="M743 1389q0 -7 -2 -11l-583 -1421q-6 -18 -25 -18h-4q-8 0 -10 2l-82 39q-17 7 -17 24v4q0 8 3 10l583 1424q7 18 25 18q8 0 14 -2l80 -39q18 -7 18 -26v-4v0z"></glyph><glyph glyph-name="zero" unicode="0" d="M1065 684q0 -112 -11.5 -211.5t-34 -178.5t-54.5 -136q-49 -89 -143.5 -137t-219.5 -48q-126 0 -219.5 48t-144.5 137q-49 87 -75 220.5t-26 305.5q0 174 26 306.5t75 219.5q33 59 85.5 100t123 63t155.5 22q125 0 220 -48t143 -137q32 -57 54.5 -135t34 -178.5 t11.5 -212.5zM870 684q0 294 -51 416q-24 60 -79.5 92.5t-137.5 32.5q-80 0 -137 -32.5t-82 -92.5q-24 -64 -37.5 -175t-13.5 -241t13.5 -241.5t37.5 -174.5q25 -59 82.5 -92t136.5 -33q81 0 137 33t80 92q51 122 51 416z"></glyph><glyph glyph-name="one" unicode="1" d="M788 59q0 -35 -9 -47t-36 -12h-73q-47 0 -58.5 9.5t-11.5 49.5v1129q-148 -82 -182 -82q-22 0 -25 35l-6 63v13q0 17 8.5 26.5t30.5 18.5q57 26 111 51t104.5 40t101.5 15q45 0 45 -55v-1254z"></glyph><glyph glyph-name="two" unicode="2" d="M1012 53q0 -34 -11.5 -43.5t-39.5 -9.5h-725q-28 0 -38 9.5t-10 41.5v74q0 35 19.5 62.5t93.5 109.5q298 329 338 381q79 101 123.5 181.5t44.5 172.5q0 110 -39.5 151.5t-144.5 41.5q-65 0 -114 -5t-97.5 -14t-70.5 -13.5t-32 -4.5q-15 0 -21.5 9.5t-13.5 43.5l-8 68v12 q0 23 12 33.5t39 13.5q185 27 304 27q129 0 214 -35.5t128 -108.5t43 -182q0 -55 -14 -122t-37.5 -126.5t-61.5 -120.5q-56 -87 -178.5 -215t-333.5 -329q60 3 141 6.5t222 8.5t217 5q34 0 42.5 -13.5t8.5 -51.5v-58z"></glyph><glyph glyph-name="three" unicode="3" d="M997 399q0 -221 -102 -323.5t-315 -102.5q-85 0 -173 16t-186 50q-55 20 -55 41q0 6 4 18l27 99q9 30 26 30q7 0 19 -4q99 -38 182 -58t164 -20q83 0 130.5 28t68 83t20.5 139q0 110 -46 157t-107 54.5t-193 9.5h-43h-82q-19 0 -25 4.5t-6 24.5v100q0 18 6.5 24.5 t28.5 6.5h131q116 0 177 22.5t85.5 78t24.5 157.5q0 110 -50 154.5t-176 44.5q-62 0 -111.5 -6.5t-95.5 -15.5t-53 -9q-19 0 -22 29l-10 98v10q0 18 12 27q13 10 101.5 19.5t172.5 9.5q221 0 318.5 -80.5t97.5 -263.5q0 -117 -33.5 -189.5t-113.5 -128.5q74 -27 118.5 -69 t64 -106t19.5 -159z"></glyph><glyph glyph-name="four" unicode="4" d="M1034 416q0 -33 -12 -43.5t-39 -10.5h-90v-303q0 -35 -9 -47t-36 -12h-72q-48 0 -59.5 9.5t-11.5 49.5v303h-517q-27 0 -36 29l-15 49q-10 32 -10 54q0 36 18 65l553 778q22 31 37 31h113q45 0 45 -55v-776q33 2 90 2q33 0 42 -14t9 -52v-57zM705 530v553l-406 -571 q86 4 168.5 8t237.5 10z"></glyph><glyph glyph-name="five" unicode="5" d="M1001 416q0 -107 -26 -188.5t-79 -139.5t-130 -86.5t-176 -28.5q-82 0 -198 21t-165 45q-16 8 -16 27q0 16 2 26l10 66q9 61 35 61q7 0 70.5 -21.5t129 -38t130.5 -16.5q223 0 223 279q0 123 -35 188q-20 43 -65.5 58.5t-147.5 15.5q-73 0 -152 -12.5t-102 -12.5 q-41 0 -41 39v9l45 598q3 41 13 52t39 11h563q28 0 39.5 -9.5t11.5 -43.5v-58q0 -38 -8.5 -51.5t-40.5 -13.5h-2q-63 0 -122.5 0.5t-112.5 1t-109 2.5t-109 4l-33 -360q78 10 138 10q114 0 196 -16q71 -15 121 -70t77 -143.5t27 -204.5z"></glyph><glyph glyph-name="six" unicode="6" d="M1004 416q0 -227 -108.5 -335t-334.5 -108q-86 0 -153.5 17t-120.5 53q-55 38 -87.5 92.5t-47.5 141.5t-15 212q0 410 56 629q18 71 52 124t84 87t118.5 50t158.5 16h29h4q58 0 221 -11q47 -3 57.5 -13.5t10.5 -49.5v-70q0 -41 -35 -41q-4 0 -50.5 6.5t-115 11.5 t-149.5 5q-141 0 -185 -105q-42 -105 -55 -325q184 45 295 45q132 0 214.5 -43.5t119.5 -139t37 -249.5zM815 432q0 133 -44 191.5t-148 58.5q-63 0 -144.5 -14.5t-144.5 -38.5q-6 -102 -6 -195q0 -89 10 -133t37 -84q58 -76 211 -76q88 0 137 27.5t70.5 90t21.5 173.5z"></glyph><glyph glyph-name="seven" unicode="7" d="M1040 1319q0 -11 -6 -35l-467 -1169q-26 -69 -43 -92t-43 -23h-102q-39 0 -39 27q0 6 29 79l440 1100q-283 -14 -506 -14h-2q-32 0 -40.5 14.5t-8.5 50.5v58q0 33 11.5 43t39.5 10h629q64 0 86 -9t22 -40z"></glyph><glyph glyph-name="eight" unicode="8" d="M1034 350q0 -94 -18 -156.5t-58 -111.5q-48 -59 -130 -84t-226 -25q-143 0 -224.5 25t-131.5 84q-40 49 -58 111.5t-18 156.5q0 93 24 145t72.5 88.5t161.5 102.5q-99 64 -148 113t-66 104.5t-17 149.5q0 98 19 163.5t64 104.5t122 56.5t200 17.5q161 0 248 -31.5 t122.5 -105.5t35.5 -205q0 -114 -51.5 -195.5t-194.5 -167.5q109 -61 163.5 -103t81.5 -97t27 -140zM817 1049q0 43 -5 85.5t-13 57.5q-14 24 -57 35.5t-140 11.5q-96 0 -138.5 -11t-57.5 -36q-10 -16 -15.5 -56t-5.5 -87q0 -60 14.5 -100t41.5 -69t61 -53t92 -63 q60 39 96.5 63t66.5 53.5t45 69.5t15 99zM846 344q0 87 -52.5 137.5t-191.5 126.5q-130 -82 -162 -104t-57 -61.5t-25 -98.5q0 -102 28.5 -147.5t75.5 -55.5t140 -10t140 10t75.5 55.5t28.5 147.5z"></glyph><glyph glyph-name="nine" unicode="9" d="M1065 754q0 -146 -5 -239t-14.5 -156.5t-27.5 -116.5q-32 -94 -89 -153t-146 -87.5t-214 -28.5q-184 0 -342 60q-22 8 -22 37q0 14 2 22l14 58q13 57 35 57q-1 0 53 -19.5t130 -35t165 -15.5q152 0 213 92q21 33 31 82t12.5 100.5t7.5 194.5q-144 -53 -288 -53 q-100 0 -165.5 22.5t-113.5 71.5q-45 49 -70.5 129t-25.5 172q0 151 44.5 250t138 148t239.5 49q168 0 262 -59.5t135 -198t41 -383.5zM868 838q0 165 -18 249q-15 71 -76.5 109.5t-157.5 38.5q-83 0 -132 -27t-70 -86.5t-21 -167.5q0 -89 18 -138t62.5 -71t116.5 -22 q136 0 278 59v49v7z"></glyph><glyph glyph-name="colon" unicode=":" d="M391 635q0 -17 -10 -27l-111 -110q-11 -11 -24 -11q-16 0 -27 11l-110 110q-11 9 -11 25q0 17 11 26l110 111q10 10 25 10q16 0 26 -10l111 -111q10 -10 10 -24zM391 86q0 -15 -10 -27l-111 -110q-10 -10 -24 -10q-17 0 -27 10l-110 110q-11 11 -11 27t11 27l110 110 q10 10 25 10q16 0 26 -10l111 -110q10 -12 10 -27z"></glyph><glyph glyph-name="semicolon" unicode=";" d="M397 635q0 -17 -10 -27l-111 -110q-11 -11 -24 -11q-16 0 -27 11l-110 110q-11 11 -11 25q0 15 11 26l110 111q10 10 25 10q16 0 26 -10l111 -111q10 -10 10 -24zM420 115v-2q0 -34 -45 -120t-101.5 -177t-80.5 -129q-21 -31 -41 -31q-14 0 -29 10l-41 29q-12 7 -12 22 q0 9 34.5 58.5t57.5 87.5q45 74 71 133l-96 88q-10 8 -10 25q0 15 10 28l107 117q9 12 22 12q15 0 27 -12l117 -109q10 -8 10 -30v0z"></glyph><glyph glyph-name="less" unicode="&lt;" d="M1208 125l-1110 469v127l1110 469v-178l-856 -355l856 -354v-178z"></glyph><glyph glyph-name="equal" unicode="=" d="M854 582h-756v145h756v-145zM854 264h-756v146h756v-146z"></glyph><glyph glyph-name="greater" unicode="&gt;" d="M1229 594l-1110 -469v178l856 354l-856 355v178l1110 -469v-127z"></glyph><glyph glyph-name="question" unicode="?" d="M815 1067q0 -140 -68.5 -243t-218.5 -261q-28 -29 -40.5 -50t-16.5 -50.5t-4 -89.5q0 -33 -6 -40t-35 -7h-88q-19 0 -27.5 4.5t-11 17.5t-2.5 49v43q0 75 41 140.5t123 158.5t123 162.5t41 159.5q0 89 -41.5 128.5t-132.5 39.5q-92 0 -200.5 -20.5t-100.5 -20.5 q-22 0 -25 41l-6 100v8v2q0 15 7.5 21.5t29.5 9.5q98 15 165 21t140 6q180 0 267 -81t87 -249zM545 86q0 -15 -10 -27l-111 -110q-10 -10 -25 -10q-14 0 -24 10l-111 110q-10 12 -10 27t10 27l111 110q10 10 24 10q15 0 25 -10l111 -110q10 -12 10 -27z"></glyph><glyph glyph-name="at" unicode="@" d="M1845 461q0 -164 -38.5 -272.5t-117.5 -163t-196 -54.5q-144 0 -231 90q-28 30 -60 84q-97 -91 -184.5 -131.5t-181.5 -40.5q-256 0 -256 283q0 111 38 183t111 100q123 46 436 49q0 131 -18 184q-10 26 -41 41.5t-74 15.5q-61 0 -131.5 -13t-133 -28.5t-73.5 -15.5 q-28 0 -28 39v76q0 28 7 39t23 14q76 15 171 28t155 13q83 0 154 -18t110 -68q40 -47 54 -110t14 -212v-151q0 -80 3.5 -127t12.5 -82q12 -44 47.5 -70t85.5 -26q60 0 93.5 28.5t48 93.5t14.5 181q0 213 -19 357t-81.5 254.5t-188.5 171.5t-336 61q-223 0 -358.5 -48.5 t-207 -147t-97 -247.5t-25.5 -372q0 -173 26 -307t91.5 -231.5t183.5 -149.5t295 -52q113 0 202.5 19t154 43t67.5 24q15 0 25 -31l16 -55q6 -18 6 -28q0 -14 -9 -21t-28 -12q-107 -38 -237 -59t-228 -21q-200 0 -345.5 67t-235 188.5t-131 288t-41.5 367.5q0 242 50 415 t153.5 285t270 167t394.5 55q231 0 389 -62.5t252 -181.5t136 -290.5t42 -405.5zM1165 250v186q-98 4 -135 4q-115 0 -171 -11.5t-76.5 -45t-20.5 -104.5q0 -85 24 -122.5t76 -37.5q60 0 150.5 38.5t152.5 92.5z"></glyph><glyph glyph-name="A" unicode="A" d="M1182 29q0 -29 -37 -29h-111q-28 0 -40.5 11.5t-22.5 39.5l-133 395q-24 -1 -75 -1.5t-86.5 -0.5h-78.5h-70.5t-78.5 0.5t-68 1.5l-123 -380q-12 -39 -25.5 -52.5t-46.5 -13.5h-94q-27 0 -35 2.5t-8 13.5q0 14 14 54l418 1235q17 44 31.5 57.5t54.5 13.5h84 q42 0 56.5 -13.5t29.5 -57.5l441 -1256q4 -16 4 -20zM784 606l-178 531l-172 -529h164q129 0 186 -2z"></glyph><glyph glyph-name="B" unicode="B" d="M1032 393q0 -194 -86 -295q-22 -25 -51 -44.5t-68.5 -31t-90 -17t-107.5 -5.5h-389q-40 0 -52 11t-12 48v1256q0 35 14 44t50 9h264q169 0 225.5 -6t97.5 -29q136 -70 136 -303q0 -111 -34 -179.5t-114 -117.5q116 -30 166.5 -109.5t50.5 -230.5zM774 1006q0 88 -22 131 q-22 41 -55.5 53t-131.5 12q-44 0 -188 -4v-446h143q63 0 113 8q75 12 108 66.5t33 179.5zM834 393q0 87 -24.5 131.5t-80.5 59.5q-62 16 -197 16h-155v-430q72 -4 184 -4q96 0 148 12q125 28 125 215z"></glyph><glyph glyph-name="C" unicode="C" d="M1001 23q0 -21 -15 -28.5t-58 -10.5q-135 -11 -228 -11q-137 0 -235 25t-161 85.5t-96.5 148t-47 194.5t-13.5 242q0 228 33.5 370t100.5 216.5t166.5 101t252.5 26.5q85 0 228 -10q43 -3 58 -10t15 -29v-71q0 -41 -7.5 -54.5t-35.5 -13.5q-33 0 -53.5 2.5t-55.5 5 t-110 2.5q-67 0 -132.5 -7.5t-102.5 -25.5q-62 -29 -94 -95t-43 -164t-11 -248q0 -106 7.5 -188t30.5 -149.5t67.5 -109t113.5 -55.5q51 -10 164 -10q79 0 130 5t89 5q28 0 35.5 -13.5t7.5 -54.5v-71z"></glyph><glyph glyph-name="D" unicode="D" d="M1147 668q0 -175 -24 -303.5t-94 -217.5t-200 -122q-61 -15 -122.5 -20t-112.5 -5h-354q-40 0 -52 11t-12 48v1256q0 35 14 44t50 9h354q157 0 255 -25t165 -96.5t100 -211t33 -367.5zM938 664q0 140 -9 232t-40.5 160.5t-97.5 100.5q-39 18 -104 25.5t-132 7.5 q-49 0 -85 -1.5t-57.5 -3.5t-35.5 -3v-996q14 -1 35.5 -3t57.5 -3.5t85 -1.5h51q55 0 111 10q93 19 141 78.5t64 153.5t16 244z"></glyph><glyph glyph-name="E" unicode="E" d="M920 53q0 -33 -12 -43t-40 -10h-628q-40 0 -52 11t-12 48v1256q0 35 14 44t50 9h628q29 0 40.5 -10t11.5 -43v-58q0 -38 -8.5 -51.5t-41.5 -13.5h-2q-237 0 -491 8v-412q218 9 446 9h2q33 0 41 -14t8 -52v-29q0 -38 -8.5 -51.5t-40.5 -13.5h-2q-204 0 -446 8v-477 q254 8 491 8h2q34 0 42 -13.5t8 -51.5v-58z"></glyph><glyph glyph-name="F" unicode="F" d="M881 1257q0 -38 -8.5 -51.5t-41.5 -13.5h-2q-137 0 -234 2t-218 6v-409q76 2 158.5 3.5t115.5 2t140 0.5h2q33 0 41 -14t8 -52v-29q0 -38 -8.5 -51.5t-40.5 -13.5h-2q-82 0 -129 1t-106.5 2t-105 2t-73.5 1v-584q0 -35 -11 -47t-40 -12h-86q-40 0 -52 11t-12 48v1256 q0 35 14 44t50 9h589q29 0 40.5 -10t11.5 -43v-58z"></glyph><glyph glyph-name="G" unicode="G" d="M1071 90q0 -37 -11 -50.5t-50 -27.5q-65 -20 -150 -29.5t-160 -9.5q-137 0 -235 25t-161 85.5t-96.5 148t-47 194.5t-13.5 242q0 228 33.5 370t100.5 216.5t166.5 101t252.5 26.5q116 0 295 -16q42 -3 57 -10.5t15 -28.5v-72q0 -40 -6.5 -53.5t-34.5 -13.5q-25 0 -66.5 5 t-89.5 8t-131 3q-67 0 -132.5 -7.5t-102.5 -25.5q-62 -29 -94 -95t-43 -164t-11 -248q0 -106 7.5 -188t30.5 -149.5t67.5 -109t113.5 -55.5q51 -10 164 -10q55 0 131 18v467h-239q-33 0 -42 14.5t-9 50.5v29q0 36 9 51t42 15h389q31 0 41 -12t10 -42v-653z"></glyph><glyph glyph-name="H" unicode="H" d="M1141 59q0 -33 -11.5 -46t-39.5 -13h-86q-41 0 -52.5 11t-11.5 48v594q-84 0 -145 -0.5t-136 -1.5q-75 1 -136 1.5t-146 0.5v-594q0 -35 -11 -47t-40 -12h-86q-40 0 -52 11t-12 48v1256q0 35 14 44t50 9h86q32 0 41.5 -11.5t9.5 -41.5v-502q66 1 122.5 1.5t159.5 0.5 t159.5 -0.5t121.5 -1.5v502q0 36 13.5 44.5t50.5 8.5h86q32 0 41.5 -11.5t9.5 -41.5v-1256z"></glyph><glyph glyph-name="I" unicode="I" d="M387 59q0 -35 -11.5 -47t-39.5 -12h-86q-39 0 -51.5 11t-12.5 48v1256q0 35 14 44t50 9h86q32 0 41.5 -11.5t9.5 -41.5v-1256z"></glyph><glyph glyph-name="J" unicode="J" d="M565 662q0 -208 -6 -310q-6 -127 -52.5 -208t-137 -119.5t-232.5 -38.5q-98 0 -114 22q-13 14 -13 70v59q0 17 9.5 27t23.5 10t39 -4t76 -4q75 0 116.5 19t59.5 63q19 46 25 123t6 266v557q-27 -2 -160 -2q-33 0 -42 14.5t-9 50.5v58q0 33 11.5 43t39.5 10h311 q31 0 40 -11.5t9 -41.5v-653z"></glyph><glyph glyph-name="K" unicode="K" d="M1133 29q0 -29 -37 -29h-140q-34 0 -51 7.5t-45 37.5l-483 520v-506q0 -35 -11 -47t-40 -12h-86q-40 0 -52 11t-12 48v1256q0 35 14 44t50 9h86q32 0 41.5 -11.5t9.5 -41.5v-565l483 573q25 30 39.5 37.5t46.5 7.5h105q39 0 39 -27q0 -11 -15 -30l-526 -629l561 -608 q23 -27 23 -45z"></glyph><glyph glyph-name="L" unicode="L" d="M860 53q0 -33 -11 -43t-38 -10h-571q-40 0 -52 11t-12 48v1256q0 35 14 44t50 9h86q32 0 41.5 -11.5t9.5 -41.5v-1145q80 2 165 3.5t120 2t149 0.5h2q32 0 39.5 -13.5t7.5 -51.5v-58z"></glyph><glyph glyph-name="M" unicode="M" d="M1485 45q0 -29 -13.5 -37t-50.5 -8h-86q-28 0 -39 13t-12 46l-61 1051q-8 -26 -28.5 -100t-33.5 -107q-42 -123 -88.5 -256.5t-86.5 -247t-64 -176.5q-13 -36 -28 -48.5t-50 -12.5h-53q-35 0 -49 12t-27 49q-53 139 -113.5 307.5t-130.5 372.5q-10 27 -23 75.5t-18.5 70 t-15.5 61.5l-66 -1051q-2 -35 -11.5 -47t-39.5 -12h-86q-35 0 -49.5 8t-14.5 37v14l105 1256q3 35 15.5 44t47.5 9h115q33 0 46 -9t22 -34q107 -283 319 -905q192 563 318 905q9 25 22 34t47 9h115q35 0 46.5 -8.5t14.5 -44.5l105 -1256v-14z"></glyph><glyph glyph-name="N" unicode="N" d="M1198 59q0 -35 -11.5 -47t-39.5 -12h-68h-14h-2q-22 0 -37 5.5t-31 25.5q-133 190 -637 975v-947q0 -35 -11.5 -47t-39.5 -12h-86q-40 0 -51.5 11t-11.5 48v1256q0 36 13 44.5t50 8.5h58q35 0 47.5 -4.5t25.5 -24.5q26 -38 107 -159t165.5 -250.5t187 -286.5t185.5 -283 v955q0 36 13 44.5t49 8.5h88q32 0 41.5 -11.5t9.5 -41.5v-1256z"></glyph><glyph glyph-name="O" unicode="O" d="M1237 682q0 -80 -5.5 -155.5t-18.5 -138t-39 -126.5t-70 -123q-75 -98 -175.5 -140t-236.5 -42t-236.5 42t-174.5 140q-54 73 -84.5 162t-40 180t-9.5 201t10 201.5t39.5 181t84.5 162.5q75 102 175 141t236 39t236 -39.5t176 -140.5q44 -57 70 -122t39 -128.5t18.5 -139 t5.5 -155.5zM1026 682q0 275 -49 387q-70 160 -285 160q-214 0 -284 -160q-50 -114 -50 -387q0 -271 50 -385q37 -86 111 -123t173 -37q215 0 285 160q49 112 49 385z"></glyph><glyph glyph-name="P" unicode="P" d="M1034 899q0 -109 -16.5 -185t-51 -127.5t-87.5 -78.5q-51 -25 -110.5 -34t-164.5 -9h-227v-406q0 -35 -11 -47t-40 -12h-86q-40 0 -52 11t-12 48v1256q0 35 14 44t50 9h374q102 0 161.5 -6.5t92 -24.5t70.5 -59q96 -107 96 -379zM836 915q0 217 -74 259q-39 20 -148 20 h-8h-22q-73 0 -207 -4v-551h266q64 0 102.5 13t59.5 42q19 30 25 75.5t6 145.5z"></glyph><glyph glyph-name="Q" unicode="Q" d="M1237 682q0 -80 -5.5 -155.5t-18.5 -138t-39 -126.5t-70 -123q-61 -81 -142.5 -124.5t-183.5 -53.5q5 -33 21 -63q36 -80 182 -80q41 0 69 2t42 2q19 0 24.5 -12.5t5.5 -57.5v-45q0 -40 -24.5 -51.5t-106.5 -11.5q-133 0 -220 33t-134.5 104t-61.5 184q-92 15 -163.5 56 t-130.5 118q-54 73 -84.5 162t-40 180t-9.5 201t10 201.5t39.5 181t84.5 162.5q75 102 175 141t236 39t236 -39.5t176 -140.5q44 -57 70 -122t39 -128.5t18.5 -139t5.5 -155.5zM1026 682q0 275 -49 387q-70 160 -285 160q-214 0 -284 -160q-50 -114 -50 -387q0 -271 50 -385 q37 -86 111 -123t173 -37q215 0 285 160q49 112 49 385z"></glyph><glyph glyph-name="R" unicode="R" d="M1104 27q0 -27 -37 -27h-121q-35 0 -53.5 7.5t-42.5 37.5l-356 479h-117v-465q0 -35 -11 -47t-40 -12h-86q-40 0 -52 11t-12 48v1256q0 35 14 44t50 9h374q102 0 161.5 -6.5t92 -24.5t70.5 -59q96 -107 96 -379q0 -153 -42 -228.5t-111 -111.5q-59 -30 -150 -33l352 -452 q21 -27 21 -47zM836 915q0 217 -74 259q-39 20 -148 20h-8h-22q-73 0 -207 -4v-492h266q123 0 162 56q17 24 24 57.5t7 103.5z"></glyph><glyph glyph-name="S" unicode="S" d="M909 408q0 -92 -6.5 -166.5t-28.5 -116.5q-44 -90 -145 -116.5t-244 -26.5q-114 0 -295 16q-42 3 -56.5 10.5t-14.5 28.5v72q0 38 6.5 52.5t34.5 14.5q37 0 119 -8t237 -8q79 0 120.5 10.5t60 48t18.5 115.5q0 87 -4.5 123t-24 58.5t-65.5 41.5q-207 91 -254 113 q-109 51 -155 87t-62.5 96t-16.5 181q0 67 4 111.5t21 88.5t53 75q53 49 127.5 61t220.5 12h4h2h17q82 0 229 -10q42 -3 57 -10t15 -29v-71q0 -41 -6.5 -54.5t-34.5 -13.5q-34 0 -54.5 2.5t-56 5t-110.5 2.5q-36 1 -68 1.5t-78 0.5q-70 0 -101 -20t-38.5 -56.5t-7.5 -115.5 q0 -51 5.5 -77.5t24 -44t62.5 -38.5q42 -18 91 -39.5t77 -34.5q116 -51 170.5 -79.5t88.5 -64.5t48 -89t14 -139z"></glyph><glyph glyph-name="T" unicode="T" d="M1034 1257q0 -38 -9 -51.5t-42 -13.5q-144 0 -336 4v-1137q0 -35 -11.5 -47t-39.5 -12h-86q-39 0 -51.5 11t-12.5 48v1137q-192 -4 -335 -4q-34 0 -43 14.5t-9 50.5v58q0 33 12 43t40 10h872q28 0 39.5 -9.5t11.5 -43.5v-58z"></glyph><glyph glyph-name="U" unicode="U" d="M1182 860q0 -224 -4.5 -326.5t-20.5 -195.5q-24 -167 -115 -262q-35 -38 -86.5 -61.5t-124.5 -34.5t-167 -11q-92 0 -165.5 11t-125 34.5t-86.5 61.5q-91 95 -115 262q-15 93 -20 195.5t-5 326.5v455q0 35 14 44t50 9h86q32 0 41.5 -11.5t9.5 -41.5v-635q0 -125 4.5 -199 t13.5 -117t29 -88q21 -48 54.5 -74.5t86.5 -39t128 -12.5q115 0 178 29.5t92 96.5q27 59 37 139t10 265v635q0 36 14.5 44.5t51.5 8.5h86q32 0 40.5 -11.5t8.5 -41.5v-455z"></glyph><glyph glyph-name="V" unicode="V" d="M1223 1352q0 -16 -15 -54l-417 -1235q-16 -44 -31.5 -57.5t-54.5 -13.5h-95q-27 0 -42.5 6t-25 20.5t-20.5 44.5l-440 1256q-4 16 -4 20q0 29 39 29h123q29 0 41 -11t22 -40l359 -1086l346 1072q12 39 25 52t46 13h101q27 0 35 -2.5t8 -13.5z"></glyph><glyph glyph-name="W" unicode="W" d="M1620 1333q0 -4 -4 -24l-270 -1264q-7 -35 -19 -44t-45 -9h-131q-31 0 -42.5 11t-23.5 44q-55 177 -227 784q-142 -527 -225 -784q-10 -31 -22.5 -43t-43.5 -12h-131q-34 0 -44.5 8.5t-18.5 44.5l-273 1264q-2 8 -2 20q0 23 15 31t51 8h102q27 0 36 -11t15 -48l195 -1078 q86 317 139 509.5t88 297.5q15 45 60 45h121q44 0 57 -45q15 -42 53.5 -173.5t76.5 -271t97 -362.5l197 1078q6 35 15 47t36 12h102q66 0 66 -35z"></glyph><glyph glyph-name="X" unicode="X" d="M1145 27q0 -27 -35 -27h-125q-25 0 -38 3.5t-22.5 13t-27.5 36.5l-283 455l-299 -455q-25 -38 -37.5 -45.5t-41.5 -7.5h-103q-35 0 -35 29q0 14 15 39l397 606l-383 614q-18 29 -18 47q0 33 43 33h112q57 0 80 -41l291 -467l305 467q27 41 80 41h82q43 0 43 -31 q0 -21 -19 -49l-389 -592l393 -628q15 -28 15 -41z"></glyph><glyph glyph-name="Y" unicode="Y" d="M1114 1329q0 -13 -12 -39l-406 -758v-473q0 -35 -11.5 -47t-39.5 -12h-86q-40 0 -51.5 11t-11.5 48v455l-414 776q-12 23 -12 45q0 33 43 33h108q32 0 45 -9.5t25 -33.5l305 -588l315 588q14 25 26 34t44 9h88q45 0 45 -33v-6z"></glyph><glyph glyph-name="Z" unicode="Z" d="M1049 1341q0 -19 -15 -47l-659 -1140q193 11 349 16.5t257 5.5q34 0 42.5 -13.5t8.5 -51.5v-58q0 -34 -12.5 -43.5t-38.5 -9.5h-819q-43 0 -43 45q0 37 28 86l617 1071q-293 -10 -551 -10q-33 0 -42 14.5t-9 50.5v58q0 33 11.5 43t39.5 10h803q29 0 33 -27z"></glyph><glyph glyph-name="bracketleft" unicode="[" d="M649 -227q0 -33 -12.5 -43.5t-38.5 -10.5h-410q-48 0 -58.5 10t-10.5 50v1814q0 36 10 46t43 10h426q26 0 38.5 -10.5t12.5 -43.5v-43q0 -37 -9 -49t-42 -12q-87 0 -173.5 3.5t-145.5 6.5v-1634q187 10 319 10q34 0 42.5 -12t8.5 -49v-43z"></glyph><glyph glyph-name="backslash" unicode="\" d="M764 4q-4 -18 -19 -24l-81 -39q-2 -2 -11 -2h-4q-18 0 -24 18l-584 1421q-2 4 -2 11v0v4q3 20 18 26l82 39q4 2 13 2q17 0 24 -18l584 -1424q4 -8 4 -14z"></glyph><glyph glyph-name="bracketright" unicode="]" d="M512 -221q0 -40 -11.5 -50t-60.5 -10h-409q-26 0 -38.5 11t-12.5 43v43q0 35 8.5 48t42.5 13q132 0 319 -10v1634q-59 -3 -145 -6.5t-174 -3.5q-23 0 -34 6t-14 17.5t-3 37.5v43q0 32 12.5 43t38.5 11h428q32 0 42.5 -10t10.5 -46v-1814z"></glyph><glyph glyph-name="asciicircum" unicode="^" d="M782 741h-192l-199 414l-198 -414h-193l328 670h127z"></glyph><glyph glyph-name="underscore" unicode="_" d="M678 -354q0 -50 -8.5 -62t-48.5 -12h-568q-34 0 -43.5 10.5t-9.5 44.5v60q0 47 53 47h568q35 0 46 -9.5t11 -37.5v-41z"></glyph><glyph glyph-name="grave" unicode="`" d="M399 1169q0 -9 -9 -11.5t-48 -2.5h-59h-7v0q-24 0 -43 10q-12 9 -15.5 13t-19 24t-49.5 68t-38 53q-45 63 -68.5 95.5t-28.5 39.5q-14 17 -14 31q0 10 7.5 15t29.5 6t86 1q58 0 70 -8q26 -22 190 -297q16 -27 16 -37z"></glyph><glyph glyph-name="a" unicode="a" d="M893 59q0 -35 -9 -47t-36 -12h-74q-47 0 -58 9.5t-11 49.5v43q-174 -129 -332 -129q-128 0 -191 70.5t-63 212.5q0 225 149 283q61 23 172 35.5t265 13.5q0 58 -5 107.5t-16 76.5q-9 26 -40 41.5t-75 15.5q-114 0 -313 -53q-16 -4 -25 -4q-26 0 -26 39v76q0 27 6 38.5 t22 14.5q79 16 174 28.5t154 12.5q81 0 152 -18t110 -68q39 -47 54.5 -109t15.5 -213v-514zM705 250v186q-100 4 -138 4q-115 0 -171 -11.5t-76.5 -45t-20.5 -104.5q0 -85 23.5 -122.5t78.5 -37.5q58 0 150 39t154 92z"></glyph><glyph glyph-name="b" unicode="b" d="M942 483q0 -189 -41 -300.5t-132 -161.5t-245 -50q-130 0 -319 29q-28 5 -42 11.5t-20 18t-6 27.5v1256q0 35 9.5 45t43.5 10h91q45 0 45 -55v-359q54 9 94 14.5t93.5 10t98.5 4.5q117 0 190 -50.5t106.5 -159t33.5 -290.5zM752 487q0 129 -23 230q-14 64 -47 87t-111 23 q-48 0 -112.5 -9.5t-132.5 -24.5v-646q132 -24 202 -24q163 0 197 113q27 93 27 251z"></glyph><glyph glyph-name="c" unicode="c" d="M795 25q0 -24 -13.5 -30.5t-68.5 -12.5q-72 -9 -168 -9q-133 0 -214.5 22t-127 75.5t-65 149t-19.5 257.5q0 161 19.5 257.5t65 150.5t127 76t214.5 22q68 0 168 -10q58 -6 70 -11.5t12 -29.5q0 -61 -9 -103q-5 -30 -28 -30q-12 0 -117 12t-158 12q-106 0 -139 -53 q-31 -49 -31 -293q0 -67 1.5 -121t4.5 -84q4 -50 21 -81.5t51 -44.5t92 -13q53 0 155 12.5t120 12.5q12 0 20 -8q6 -8 11.5 -44.5t5.5 -80.5z"></glyph><glyph glyph-name="d" unicode="d" d="M932 59q0 -35 -9 -47t-36 -12h-74q-47 0 -58.5 9.5t-11.5 49.5v7q-87 -51 -155.5 -73t-136.5 -22q-105 0 -180.5 54.5t-113.5 161t-38 257.5q0 535 397 535q58 0 122.5 -8t104.5 -17v359q0 35 10 45t44 10h90q45 0 45 -55v-1254zM743 238v548q-130 37 -233 37 q-64 0 -100 -22q-101 -61 -101 -379q0 -163 45 -232q22 -29 59.5 -48t78.5 -19q55 0 124.5 31t126.5 84z"></glyph><glyph glyph-name="e" unicode="e" d="M883 508q0 -63 -7.5 -78.5t-41.5 -15.5h-525q0 -112 11 -174.5t57 -85.5q56 -29 149 -29q70 0 129.5 9.5t119 23.5t71.5 14q15 0 20 -61q2 -15 2 -50q0 -32 -7 -43t-36 -16q-158 -29 -301 -29q-106 0 -189 27t-126 74q-48 51 -69 145t-21 252q0 143 12.5 226.5 t48.5 146.5q78 139 336 139q237 0 311 -137q37 -65 46.5 -144t9.5 -194zM702 649q0 105 -37.5 141.5t-148.5 36.5q-87 0 -131 -19t-60 -67t-16 -143v-41h391q2 37 2 92z"></glyph><glyph glyph-name="f" unicode="f" d="M709 1337q0 -55 -7 -110q-3 -21 -20 -21q-16 0 -60 10.5t-110 10.5q-84 0 -102 -23q-13 -13 -18 -48.5t-5 -104.5v-99h213q35 0 46 -9.5t11 -37.5v-28q0 -50 -8.5 -62t-48.5 -12h-213v-744q0 -35 -9 -47t-36 -12h-72q-48 0 -59.5 9.5t-11.5 49.5v744h-58 q-34 0 -43.5 10.5t-9.5 44.5v47q0 47 53 47h58v99q0 98 10.5 142.5t34.5 80.5q43 63 114 86.5t207 23.5q95 0 119.5 -8.5t24.5 -38.5z"></glyph><glyph glyph-name="g" unicode="g" d="M909 -102q0 -80 -7 -113t-30 -68q-43 -68 -131 -104.5t-213 -36.5q-90 0 -196 11t-174 30q-22 6 -28.5 15.5t-6.5 33.5q0 38 6 76q5 30 9.5 39.5t15.5 9.5q2 0 72.5 -16.5t147.5 -27.5t169 -11q91 0 128.5 24.5t43.5 85.5q6 56 6 164q-156 -35 -272 -35q-92 0 -155.5 28 t-105 87.5t-60.5 149.5t-19 219q0 283 102 403q32 38 64 60.5t72.5 35.5t99.5 19t139 6h28h4q146 0 242 -8q33 -3 41 -13t8 -47v-1017zM721 174v647q-99 6 -197 6q-80 0 -118.5 -18t-61.5 -66q-19 -42 -31 -116t-12 -156q0 -83 12 -172q14 -98 48 -135t114 -37q113 0 246 47 z"></glyph><glyph glyph-name="h" unicode="h" d="M913 59q0 -35 -8.5 -47t-36.5 -12h-71q-49 0 -60.5 9.5t-11.5 49.5v551q0 162 -18 189q-25 30 -93 30q-137 0 -288 -112v-658q0 -35 -9 -47t-36 -12h-72q-49 0 -60.5 9.5t-11.5 49.5v1254q0 35 9.5 45t43.5 10h91q45 0 45 -55v-422q65 37 144 65.5t167 28.5 q104 0 166.5 -38.5t86 -98t23.5 -127.5v-662z"></glyph><glyph glyph-name="i" unicode="i" d="M352 1167q0 -35 -9 -47t-36 -12h-80q-47 0 -58 9.5t-11 49.5v74q0 35 9.5 45t43.5 10h96q45 0 45 -55v-74zM352 59q0 -35 -9 -47t-36 -12h-80q-47 0 -58 9.5t-11 49.5v838q0 35 9.5 45t43.5 10h96q45 0 45 -55v-838z"></glyph><glyph glyph-name="j" unicode="j" d="M358 1167q0 -35 -9 -47t-36 -12h-80q-47 0 -58 9.5t-11 49.5v74q0 35 9.5 45t43.5 10h96q45 0 45 -55v-74zM358 -33q0 -151 -16 -217q-18 -75 -97.5 -123.5t-183.5 -48.5h-24q-61 0 -70 16q-4 7 -5 14t-1 40v53q0 51 27 51q14 0 51.5 -7t48.5 -7q31 0 47 10.5t22.5 41.5 t6.5 87v1020q0 35 9.5 45t43.5 10h96q45 0 45 -55v-930z"></glyph><glyph glyph-name="k" unicode="k" d="M958 20q0 -20 -43 -20h-131q-20 0 -32.5 8t-32.5 31l-393 469v-449q0 -35 -9 -47t-36 -12h-72q-49 0 -60.5 9.5t-11.5 49.5v1254q0 35 9.5 45t43.5 10h91q45 0 45 -55v-680l301 293q19 17 32.5 21.5t45.5 4.5h108q41 0 41 -20q0 -14 -37 -47l-332 -307l463 -541 q10 -15 10 -17z"></glyph><glyph glyph-name="l" unicode="l" d="M336 59q0 -35 -9 -47t-36 -12h-72q-48 0 -60 9.5t-12 49.5v1254q0 35 10 45t44 10h90q45 0 45 -55v-1254z"></glyph><glyph glyph-name="m" unicode="m" d="M1354 59q0 -35 -8.5 -47t-36.5 -12h-72q-48 0 -60 9.5t-12 49.5v551q0 159 -18 189q-21 30 -57 30q-81 0 -244 -135v-635q0 -35 -9 -47t-36 -12h-74q-48 0 -59 9.5t-11 49.5v551q0 160 -20 189q-21 30 -57 30q-51 0 -114 -40.5t-130 -94.5v-635q0 -35 -9 -47t-36 -12h-72 q-48 0 -60 9.5t-12 49.5v838q0 35 10 45t44 10h90q45 0 45 -55v-35q68 51 143.5 87t167.5 36q138 0 180 -135q78 57 153.5 96t174.5 39q100 0 149.5 -70t49.5 -194v-662z"></glyph><glyph glyph-name="n" unicode="n" d="M924 59q0 -34 -9.5 -46.5t-35.5 -12.5h-72q-49 0 -60.5 9.5t-11.5 49.5v551q0 163 -20 189q-25 30 -92 30q-52 0 -97.5 -16t-88.5 -45.5t-101 -75.5v-633q0 -35 -9 -47t-36 -12h-72q-48 0 -60 9.5t-12 49.5v838q0 35 10 45t44 10h90q45 0 45 -55v-33q78 58 143 89.5 t168 31.5q80 0 136 -23t86 -60t42.5 -82.5t12.5 -98.5v-662z"></glyph><glyph glyph-name="o" unicode="o" d="M979 477q0 -138 -24.5 -225t-80.5 -154q-100 -125 -325 -125q-111 0 -193 31t-135 94q-54 66 -78 154.5t-24 224.5q0 94 10.5 162.5t32 120t59.5 98.5q105 125 328 125q224 0 325 -125q39 -48 62 -100.5t33 -119.5t10 -161zM788 477q0 185 -40 264q-26 51 -66 68.5 t-133 17.5t-132.5 -17t-66.5 -69q-41 -81 -41 -264t41 -264q25 -49 67 -66.5t132 -17.5t132 17.5t67 66.5q40 79 40 264z"></glyph><glyph glyph-name="p" unicode="p" d="M969 496q0 -78 -5.5 -144t-17.5 -112t-31 -82q-46 -89 -139.5 -137t-218.5 -48q-106 0 -221 31v-360q0 -35 -9 -47.5t-36 -12.5h-72q-48 0 -60 9.5t-12 50.5v1253q0 35 10 45t44 10h90q45 0 45 -55v-35q99 57 177.5 89t160.5 32q67 0 115 -18.5t85 -65.5 q53 -62 74 -150.5t21 -252.5zM778 489q0 65 -6.5 136t-13.5 106q-11 47 -40 71.5t-75 24.5q-59 0 -149.5 -40t-157.5 -85v-538q112 -39 227 -39q62 0 105 18q110 48 110 346z"></glyph><glyph glyph-name="q" unicode="q" d="M915 -356q0 -35 -8.5 -47.5t-36.5 -12.5h-71q-49 0 -60.5 9.5t-11.5 50.5v415q-62 -45 -123.5 -65.5t-134.5 -20.5q-182 0 -266 119t-84 369q0 142 23.5 235.5t76.5 163.5q56 74 120 98.5t198 24.5q91 0 159 -3t174 -11q27 -1 36 -9.5t9 -31.5v-1284zM727 236v573 q-130 18 -217 18q-63 0 -99.5 -17t-56.5 -54q-45 -87 -45 -324q0 -151 25 -213q18 -43 59 -68.5t92 -25.5q121 0 242 111z"></glyph><glyph glyph-name="r" unicode="r" d="M692 854q0 -37 -8.5 -50t-30.5 -13q-78 0 -125 -8t-87.5 -26t-98.5 -55v-643q0 -35 -9 -47t-36 -12h-78q-48 0 -60 9.5t-12 49.5v838q0 35 10 45t44 10h96q45 0 45 -55v-43q155 111 297 111q53 0 53 -39v-72z"></glyph><glyph glyph-name="s" unicode="s" d="M809 268q0 -121 -29 -181t-101.5 -83.5t-215.5 -23.5q-175 0 -287 14q-17 3 -21.5 14t-4.5 49q0 23 2 74q0 17 4 22t16 5q-4 0 102 -12.5t215 -12.5q88 0 114 22t26 91q0 74 -17 92q-15 15 -57 30.5t-166 51.5q-163 48 -209 94q-53 53 -53 176q0 139 61 211 q41 45 112 59.5t253 14.5q100 0 149 -4q30 -2 44.5 -7t19 -18.5t4.5 -44.5v-10v0q0 -17 -2 -53q-2 -20 -9 -27.5t-28 -7.5q-18 0 -64 5t-93.5 9t-110.5 4q-76 0 -105.5 -7t-39 -28.5t-9.5 -78.5q0 -39 4 -54q5 -17 19 -27t46.5 -22.5t125.5 -42.5l133 -43q103 -32 137.5 -82 t34.5 -168z"></glyph><glyph glyph-name="t" unicode="t" d="M662 877q0 -50 -9.5 -62t-48.5 -12h-213v-520q0 -95 12 -119q16 -37 66 -37q20 0 47 5.5t46.5 10t42.5 10t32 5.5q13 0 16.5 -4.5t3.5 -22.5v-78q0 -41 -8 -50.5t-45 -12.5q-108 -10 -174 -10q-72 0 -116 13t-68 46t-33.5 91t-9.5 146v527h-51q-34 0 -44 10.5t-10 44.5 v47q0 47 54 47h51v193q0 35 9.5 45t43.5 10h90q45 0 45 -55v-193h213q35 0 46.5 -9.5t11.5 -37.5v-28z"></glyph><glyph glyph-name="u" unicode="u" d="M913 55q0 -36 -10 -45.5t-43 -9.5h-90q-45 0 -45 55v33q-52 -39 -89 -62t-94 -41t-126 -18q-154 0 -216.5 76.5t-62.5 187.5v662q0 34 9 46.5t36 12.5h74q48 0 59 -9.5t11 -49.5v-551q0 -163 20 -188q23 -31 92 -31q77 0 137 32t150 105v633q0 34 9 46.5t36 12.5h74 q48 0 58.5 -9t10.5 -50v-838z"></glyph><glyph glyph-name="v" unicode="v" d="M891 932q0 -5 -4 -23l-301 -856q-12 -34 -25.5 -43.5t-42.5 -9.5h-84q-36 0 -46.5 8t-22.5 45l-302 858q-4 9 -4 23q0 18 33 18h111q34 0 44.5 -8t20.5 -39l209 -674l211 672q10 33 21 41t45 8h104q33 0 33 -20z"></glyph><glyph glyph-name="w" unicode="w" d="M1315 922q0 -17 -4 -27l-252 -866q-6 -21 -14 -25t-33 -4h-78q-31 0 -40.5 9t-27.5 59l-164 471l-165 -471q-16 -48 -26 -58t-42 -10h-78q-24 0 -32.5 4.5t-14.5 24.5l-252 866q-4 20 -4 27q0 30 47 30h88q35 0 47 -9.5t19 -43.5l157 -663l162 512q11 28 22 35.5t44 7.5 h55q33 0 46 -8t22 -35l161 -512l156 663q7 34 20 43.5t46 9.5h88q47 0 47 -30z"></glyph><glyph glyph-name="x" unicode="x" d="M936 23q0 -12 -8.5 -17.5t-26.5 -5.5h-127q-25 0 -32 3.5t-19 21.5l-215 331l-217 -331q-12 -17 -19.5 -21t-31.5 -4h-125q-21 0 -29 5t-8 18q0 9 11 26t24 34.5t20 27.5l268 368l-245 357q-56 81 -56 94q0 22 35 22h98q38 0 53.5 -10.5t43.5 -56.5l178 -277l176 277 q31 48 45 57.5t57 9.5h93q34 0 34 -22q0 -17 -53 -94l-246 -357l267 -368q55 -75 55 -88z"></glyph><glyph glyph-name="y" unicode="y" d="M909 928q0 -2 -18 -58l-434 -1241q-9 -25 -21.5 -32t-46.5 -7h-102q-21 0 -27 4.5t-6 14.5q0 8 12 37l156 383l-340 882q-4 18 -4 21q0 20 37 20h90q45 0 59 -5.5t21 -28.5l219 -668l205 645q12 37 26 47t51 10h88q35 0 35 -24z"></glyph><glyph glyph-name="z" unicode="z" d="M829 53q0 -34 -12.5 -43.5t-38.5 -9.5h-628q-41 0 -41 41v37q0 36 24 72l467 665q-87 -6 -155.5 -11t-134 -9t-124.5 -4q-33 0 -42 14.5t-9 50.5v43q0 33 11.5 43t39.5 10h596q19 0 25 -6t6 -26v-64q0 -28 -14 -51l-471 -666q282 23 450 23q33 0 42 -14t9 -52v-43z"></glyph><glyph glyph-name="braceleft" unicode="{" d="M731 -264q0 -21 -29 -21q-109 0 -209 32t-147 108q-27 43 -41 96t-21.5 119.5t-10 124t-5.5 118.5q-6 106 -20 161.5t-47 99t-103 106.5q70 63 103 106.5t47 99t20 161.5q3 61 5.5 118t10 125t21.5 120t41 95q48 78 147.5 109t208.5 31q29 0 29 -21v-59q0 -18 -31 -25 q-87 -15 -142 -33.5t-81 -64.5q-11 -23 -19 -57.5t-15 -91.5t-10 -108.5t-3 -127.5q-2 -103 -15 -156t-46.5 -97.5t-112.5 -123.5q79 -79 112.5 -123t46.5 -97.5t15 -156.5q0 -138 13 -240.5t34 -144.5q26 -46 81 -64.5t142 -33.5q31 -7 31 -25v-59z"></glyph><glyph glyph-name="bar" unicode="|" d="M170 -225q0 -36 -9.5 -48t-37.5 -12h-51q-49 0 -60.5 9.5t-11.5 50.5v1814q0 36 10 46t43 10h70q47 0 47 -56v-1814z"></glyph><glyph glyph-name="braceright" unicode="}" d="M614 680q-70 -63 -102.5 -106.5t-47 -101.5t-20.5 -159q-3 -61 -6 -128.5t-8.5 -118.5t-21.5 -111t-41 -100q-48 -76 -148 -108t-209 -32q-30 0 -30 21v59q0 19 32 25q87 15 142 33.5t79 64.5q13 25 24 79.5t17.5 134t6.5 171.5q2 78 8.5 123t26 85t50.5 75.5t91 93.5 q-65 65 -94.5 98.5t-48 73t-25 83.5t-8.5 122q0 92 -6.5 171.5t-17.5 134t-24 79.5q-24 46 -79 64.5t-142 33.5q-32 6 -32 25v59q0 21 30 21q109 0 209 -31t148 -109q25 -40 41 -98.5t21.5 -111t8.5 -120t6 -128.5q6 -101 20.5 -159t47 -101.5t102.5 -106.5z"></glyph><glyph glyph-name="asciitilde" unicode="~" d="M649 1298q0 -12 -16 -49q-64 -135 -174 -135q-39 0 -72 8.5t-73 25t-60.5 23.5t-44.5 7q-26 0 -42.5 -10.5t-39.5 -39.5q-9 -13 -16 -17.5t-19 -4.5h-67q-16 0 -20.5 3t-4.5 11q0 17 25 60q69 133 172 133q31 0 64 -8t74 -21.5t70.5 -23t47.5 -9.5q36 0 67 49q5 9 10 12 t21 3h72q26 0 26 -17z"></glyph><glyph glyph-name="uni00A0" unicode=" "></glyph><glyph glyph-name="exclamdown" unicode="¡" d="M424 1233q0 -17 -10 -27l-111 -110q-11 -11 -24 -11q-16 0 -27 11l-111 110q-10 10 -10 25q0 16 10 26l111 111q10 10 24 10q17 0 27 -10l111 -111q10 -10 10 -24zM373 -4q0 -30 -11.5 -38.5t-42.5 -8.5h-90q-45 0 -45 51v2v2l21 928q1 34 10 46.5t35 12.5h33q48 0 59 -9 t12 -50l19 -928v-6v-2z"></glyph><glyph glyph-name="cent" unicode="¢" d="M788 229q0 -23 -11 -29t-68 -14q-43 -4 -129 -8v-78q0 -34 -9.5 -46.5t-35.5 -12.5h-31q-24 0 -33.5 11t-9.5 48v80q-106 6 -172 32.5t-102.5 80.5t-52 148t-15.5 241q0 148 15.5 241.5t52 149t103 82t171.5 31.5v86q0 35 9.5 45t43.5 10h21q45 0 45 -55v-84 q25 -1 129 -10q53 -6 66 -11.5t13 -29.5q0 -59 -8 -103q-5 -30 -28 -30q-8 0 -172 18v-678q169 18 172 18q15 0 20 -8q6 -7 11 -45.5t5 -79.5zM461 338v690q-93 -3 -123 -53q-31 -49 -31 -293q0 -125 8 -205q8 -75 39 -105.5t107 -33.5z"></glyph><glyph glyph-name="sterling" unicode="£" d="M1026 1323q0 -4 -0.5 -7t-1.5 -7l-10 -68q-7 -53 -33 -53q-8 0 -29 5t-64 13.5t-90.5 13.5t-113.5 5q-74 0 -114.5 -22t-57 -70.5t-16.5 -133.5q0 -101 16 -223h260q35 0 46 -9.5t11 -37.5v-31q0 -50 -8.5 -61.5t-48.5 -11.5h-254v-37q0 -82 -14 -187q-8 -52 -22.5 -99.5 t-43.5 -121.5q35 -7 87.5 -24t92 -26t74.5 -9q77 0 138.5 20t112 47t54.5 27q21 0 21 -33v-71q0 -41 -9 -55.5t-46 -35.5q-51 -30 -115.5 -46.5t-124.5 -16.5q-56 0 -93 7.5t-95 24.5t-97.5 26.5t-83.5 9.5q-40 0 -107.5 -18.5t-74.5 -18.5q-17 0 -20 32l-5 76v13 q0 36 15 51q16 16 129 39q18 83 25.5 156.5t7.5 158.5q0 61 -2 111h-76q-34 0 -43.5 10.5t-9.5 44.5v49q0 26 9.5 36.5t30.5 10.5h82q-18 198 -18 268t21 137t55 111q44 55 114.5 79t180.5 24q121 0 305 -27q53 -6 53 -45z"></glyph><glyph glyph-name="yen" unicode="¥" d="M1114 1333q0 -17 -12 -43l-406 -758v-36h189q34 0 45.5 -9.5t11.5 -37.5v-27q0 -35 -9 -44t-48 -9h-189v-111h189q35 0 46 -9.5t11 -37.5v-27q0 -35 -9 -44t-48 -9h-189v-72q0 -35 -11.5 -47t-39.5 -12h-86q-40 0 -51.5 11t-11.5 48v72h-193q-34 0 -43.5 10.5t-9.5 44.5 v25q0 47 53 47h193v111h-193q-34 0 -43.5 10.5t-9.5 44.5v25q0 47 53 47h193v18l-414 776q-14 27 -14 43q0 35 45 35h108q32 0 45 -9.5t25 -33.5l305 -588l315 588q14 25 26 34t44 9h88q45 0 45 -35z"></glyph><glyph glyph-name="brokenbar" unicode="¦" d="M186 760h-116v672h116v-672zM186 -68h-116v672h116v-672z"></glyph><glyph glyph-name="section" unicode="§" d="M651 53q0 -34 -12.5 -43.5t-38.5 -9.5h-446q-26 0 -39 10t-13 43v51q0 36 9 51t43 15q42 0 122 -4v1036q-80 -4 -122 -4q-34 0 -43 15t-9 51v51q0 33 12 43t40 10h446q28 0 39.5 -9.5t11.5 -43.5v-51q0 -38 -9 -52t-42 -14q-41 0 -123 4v-1036q82 4 123 4q33 0 42 -14 t9 -52v-51z"></glyph><glyph glyph-name="dieresis" unicode="¨" d="M510 1137q0 -13 -10 -22t-21 -9h-131q-10 0 -19.5 9.5t-9.5 21.5v137q0 13 9 22t20 9h131q12 0 21.5 -8.5t9.5 -22.5v-137zM190 1137q0 -12 -8.5 -21.5t-19.5 -9.5h-133q-12 0 -20.5 9.5t-8.5 21.5v137q0 13 8 22t21 9h133q12 0 20 -9t8 -22v-137z"></glyph><glyph glyph-name="copyright" unicode="©" d="M1706 500q0 -239 -48.5 -412.5t-148 -286.5t-252.5 -169t-362 -56q-386 0 -580 227q-70 80 -113.5 178t-63 221t-19.5 287q0 166 19.5 288.5t63 220.5t113.5 178q98 114 240 170.5t342 56.5q514 0 690 -336q119 -230 119 -567zM1507 481q0 90 -9 177.5t-21 143.5 t-32.5 119t-43.5 111q-56 113 -178 170.5t-308 57.5q-185 0 -308.5 -57.5t-182.5 -168.5q-47 -92 -77 -233.5t-30 -311.5q0 -168 30 -310.5t77 -233.5q119 -226 494 -226q181 0 304 57.5t179 170.5q47 100 76.5 232.5t29.5 301.5zM1186 47q0 -32 -60 -35q-91 -6 -161 -6 q-109 0 -166 14q-71 17 -116.5 56.5t-71 101t-34 129t-8.5 154.5q0 152 23.5 244t71.5 143t119.5 69.5t181.5 18.5q70 0 161 -6q34 -3 47 -11t13 -24v-47q0 -29 -7 -42t-32 -13q-21 0 -57 4q-34 4 -97 4q-114 0 -162 -21q-41 -17 -62 -59t-28.5 -106.5t-7.5 -155.5 q0 -73 5.5 -121.5t21.5 -89t45.5 -66t75.5 -35.5q39 -6 112 -6q63 0 97 4q16 2 47 2h2h2h6q26 0 32.5 -12t6.5 -41v-47z"></glyph><glyph glyph-name="ordfeminine" unicode="ª" d="M621 844q0 -45 -39 -45h-47q-33 0 -44.5 7.5t-11.5 37.5v6q-104 -66 -205 -66q-176 0 -176 174q0 67 27 111.5t78 60.5q75 28 276 31q0 62 -12 92q-11 27 -66 27q-50 0 -90 -7.5t-118 -23.5q-5 -2 -11 -2q-28 0 -28 33v43q0 36 28 41q125 25 213 25q54 0 103 -12t75 -42 q28 -30 38 -66.5t10 -125.5v-299zM479 958v95q-28 2 -78 2q-71 0 -107.5 -6.5t-47 -23.5t-10.5 -54q0 -45 13.5 -63.5t43.5 -18.5q34 0 92 21t94 48z"></glyph><glyph glyph-name="guillemotleft" unicode="«" d="M811 131q0 -20 -98 -20q-35 0 -47.5 5.5t-24.5 24.5q-27 44 -84 136t-85 141t-28 59q0 11 34.5 71t85 140.5t77.5 124.5q11 20 24 25.5t48 5.5q98 0 98 -21q0 -6 -4 -18l-182 -328l182 -327q4 -14 4 -19zM457 131q0 -20 -101 -20q-34 0 -46.5 5.5t-24.5 24.5 q-27 44 -84 136t-85 141t-28 59q0 11 34.5 71t85 140.5t77.5 124.5q11 20 24 25.5t47 5.5q101 0 101 -21q0 -9 -6 -18l-181 -328l181 -327q6 -10 6 -19z"></glyph><glyph glyph-name="uni00AD" unicode="­" d="M797 545q0 -50 -8.5 -62t-49.5 -12h-567q-34 0 -43.5 10.5t-9.5 44.5v60q0 47 53 47h567q35 0 46.5 -9.5t11.5 -37.5v-41z"></glyph><glyph glyph-name="registered" unicode="®" d="M1706 500q0 -239 -48.5 -412.5t-148 -286.5t-252.5 -169t-362 -56q-192 0 -335.5 56t-244.5 171q-106 122 -151 279.5t-45 406.5q0 250 45 407.5t151 279.5q66 76 152 126.5t191.5 75.5t238.5 25q517 0 692 -336q56 -107 86.5 -254t30.5 -313zM1507 481q0 90 -9 177.5 t-21 143.5t-32.5 119t-43.5 111q-56 113 -178 170.5t-308 57.5q-185 0 -308.5 -57.5t-182.5 -168.5q-47 -93 -76 -232.5t-29 -312.5q0 -172 29 -311.5t76 -232.5q119 -226 496 -226q119 0 214.5 26t162 75.5t104.5 126.5q47 100 76.5 232.5t29.5 301.5zM1284 53 q0 -26 -35 -26h-86q-27 0 -42 5.5t-34 26.5l-245 308h-66v-291q0 -28 -11 -38.5t-36 -10.5h-59q-31 0 -43.5 9.5t-12.5 39.5v815q0 29 14 37t42 8h262q76 0 115 -4t64 -16.5t54 -41.5q70 -73 70 -253q0 -236 -201 -250l234 -279q16 -22 16 -39zM1077 633q0 73 -12 109.5 t-35 48.5q-22 12 -131 12q-49 0 -73 -0.5t-50 -1.5v-299h174q82 0 107 30q20 34 20 101z"></glyph><glyph glyph-name="uni00AF" unicode="¯" d="M678 1769q0 -50 -8.5 -62t-48.5 -12h-568q-34 0 -43.5 10.5t-9.5 44.5v60q0 47 53 47h568q35 0 46 -9.5t11 -37.5v-41z"></glyph><glyph glyph-name="degree" unicode="°" d="M641 1178q0 -101 -67.5 -171.5t-163.5 -70.5q-95 0 -163.5 71t-68.5 171q0 65 31 121t84 88t117 32q96 0 163.5 -70.5t67.5 -170.5zM559 1178q0 65 -43 109t-106 44t-105.5 -45.5t-42.5 -107.5q0 -43 20 -78t53.5 -55.5t74.5 -20.5q42 0 75.5 20.5t53.5 55.5t20 78z"></glyph><glyph glyph-name="plusminus" unicode="±" d="M975 590h-357v-371h-110v371h-358v117h356v370h110v-370h359v-117zM975 -23h-825v117h825v-117z"></glyph><glyph glyph-name="acute" unicode="´" d="M399 1489q0 -14 -14 -31q-40 -55 -96 -135q-105 -147 -123 -158q-19 -10 -43 -10v0h-6h-60q-28 0 -39 1t-14.5 3.5t-3.5 9.5q0 10 16 37q164 275 191 297q8 8 67 8q65 0 87.5 -1t30 -6t7.5 -15z"></glyph><glyph glyph-name="paragraph" unicode="¶" d="M1253 -328q0 -37 -3 -50t-14 -18t-38 -5h-244v1900h-163v-1900h-246q-34 0 -43.5 10.5t-9.5 44.5v47q0 47 53 47h104v889h-33h-4q-97 0 -163 11.5t-138 51.5q-58 34 -98.5 98t-63 145t-22.5 157q0 121 32 238.5t95 179.5q45 45 90 65.5t122.5 28.5t225.5 8h506 q34 0 44.5 -9.5t10.5 -37.5v-29q0 -37 -3 -50.5t-13.5 -18.5t-38.5 -5h-102v-1722h102q34 0 44.5 -9.5t10.5 -37.5v-29z"></glyph><glyph glyph-name="uni00B7" unicode="·" d="M391 692q0 -16 -10 -26l-111 -111q-10 -10 -24 -10q-17 0 -27 10l-110 111q-11 9 -11 24q0 18 11 27l110 110q9 11 25 11q17 0 26 -11l111 -110q10 -10 10 -25z"></glyph><glyph glyph-name="cedilla" unicode="¸" d="M332 -10q0 -7 -15 -27l-124 -166q-20 -26 -32.5 -33.5t-39.5 -7.5h-84q-37 0 -37 17q0 9 25 39l155 170q17 18 74 18h51q27 0 27 -10z"></glyph><glyph glyph-name="ordmasculine" unicode="º" d="M678 1085q0 -152 -70 -227q-73 -76 -221 -76q-146 0 -219 76q-39 44 -54.5 95t-15.5 132q0 82 16 133.5t54 94.5q70 76 219 76q151 0 221 -76q38 -41 54 -93.5t16 -134.5zM535 1085q0 99 -27 148q-15 26 -38 35.5t-83 9.5q-58 0 -80 -9t-39 -36q-26 -47 -26 -148 q0 -104 26 -149q16 -25 40 -34t79 -9q58 0 82.5 9t38.5 34q27 47 27 149z"></glyph><glyph glyph-name="guillemotright" unicode="»" d="M852 477q0 -15 -63.5 -120t-133.5 -216q-12 -19 -24 -24.5t-47 -5.5q-101 0 -101 20q0 9 6 19l181 327l-181 328q-6 9 -6 18q0 21 101 21q35 0 47.5 -5.5t23.5 -25.5q27 -42 53.5 -84t66.5 -107.5t58.5 -99.5t18.5 -45zM496 477q0 -15 -63.5 -120t-133.5 -216 q-12 -19 -24 -24.5t-48 -5.5q-100 0 -100 20q0 3 1.5 7l4.5 12l182 327l-182 328q-2 6 -4 10.5t-2 7.5q0 21 100 21q36 0 48.5 -5.5t23.5 -25.5q27 -42 53.5 -84t66.5 -107.5t58.5 -99.5t18.5 -45z"></glyph><glyph glyph-name="onequarter" unicode="¼" d="M414 735q0 -23 -11.5 -37t-35.5 -14h-37q-29 0 -44.5 9.5t-15.5 41.5v516q-5 -2 -14.5 -6.5t-21 -9t-21.5 -7.5t-14 -3q-14 0 -22 7.5t-11.5 19t-4.5 24t-1 22.5q0 19 9.5 28t25.5 15q21 9 41.5 18.5t41.5 17.5t43 13t46 5q21 0 34 -13t13 -34v-613zM1122 1391 q0 -3 -19.5 -43t-52.5 -106t-78 -153.5t-96 -186.5t-105.5 -205t-107 -207.5t-100.5 -195t-86.5 -168t-64.5 -125t-35 -67.5q-6 -16 -25 -16q-7 0 -16.5 4.5t-19.5 10t-19 11.5t-14 9q-17 9 -17 27q0 3 19.5 42.5t52.5 105.5t78 154t96 187t105.5 204.5t107 207t101 195 t87 168t64.5 125t35 67.5q10 16 26 16q5 0 15 -4.5t20.5 -10.5t19.5 -12t13 -8q16 -10 16 -26zM1100 516l-174 -231q43 2 86.5 3t87.5 3v225zM1233 51q0 -20 -5.5 -30.5t-15.5 -15t-23.5 -5t-29.5 -0.5q-29 0 -44 9.5t-15 41.5v127h-256q-15 0 -26 9t-17.5 22t-9.5 28t-3 27 q0 25 15 43l287 381q6 9 16 17t22 8h58q21 0 34 -14t13 -35v-367h8q17 0 29.5 -1.5t20.5 -6.5t12 -16t4 -29q0 -24 -3.5 -37.5t-11.5 -19.5t-22.5 -7.5t-36.5 -1.5v-127z"></glyph><glyph glyph-name="onehalf" unicode="½" d="M414 735q0 -23 -11.5 -37t-35.5 -14h-37q-29 0 -44.5 9.5t-15.5 41.5v516q-5 -2 -14.5 -6.5t-21 -9t-21.5 -7.5t-14 -3q-14 0 -22 7.5t-11.5 19t-4.5 24t-1 22.5q0 19 9.5 28t25.5 15q21 9 41.5 18.5t41.5 17.5t43 13t46 5q21 0 34 -13t13 -34v-613zM1122 1391 q0 -3 -19.5 -43t-52.5 -106t-78 -153.5t-96 -186.5t-105.5 -205t-107 -207.5t-100.5 -195t-86.5 -168t-64.5 -125t-35 -67.5q-6 -16 -25 -16q-7 0 -16.5 4.5t-19.5 10t-19 11.5t-14 9q-17 9 -17 27q0 3 19.5 42.5t52.5 105.5t78 154t96 187t105.5 204.5t107 207t101 195 t87 168t64.5 125t35 67.5q10 16 26 16q5 0 15 -4.5t20.5 -10.5t19.5 -12t13 -8q16 -10 16 -26zM1331 47q0 -47 -49 -47h-377q-21 0 -30.5 7t-13.5 18.5t-3.5 26.5t0.5 30q0 22 24 53.5t60 68.5t78 78t78 83t60 83t24 78q0 39 -15.5 55.5t-60.5 16.5q-28 0 -55.5 -1.5 t-55.5 -6.5q-12 -2 -26.5 -5t-26.5 -3q-15 0 -24 9t-13.5 22.5t-6 28t-1.5 26.5q0 23 14.5 31.5t32.5 11.5q40 6 80 10t80 4q46 0 86.5 -9t71 -30t48 -55.5t17.5 -85.5q0 -69 -27.5 -128.5t-70 -111t-93.5 -97t-98 -87.5q62 3 122 5.5t122 2.5q21 0 31 -7t14 -18.5t4 -26.5 v-30z"></glyph><glyph glyph-name="threequarters" unicode="¾" d="M1178 1391q0 -3 -19.5 -43t-53 -106t-78 -153.5t-95.5 -186.5t-105.5 -205t-107 -207.5t-101 -195t-87 -168t-64.5 -125t-35 -67.5q-6 -16 -24 -16q-7 0 -17 4.5t-20 10t-19 11.5t-14 9q-16 10 -16 27q0 3 19.5 42.5t52.5 105.5t78 154t96 187t105.5 204.5t107 207 t100.5 195t86.5 168t64.5 125t35 67.5q10 16 27 16q4 0 14 -4.5t20.5 -10.5t19.5 -12t13 -8q17 -10 17 -26zM1135 516l-174 -231q43 2 86.5 3t87.5 3v225zM1268 51q0 -20 -5.5 -30.5t-15.5 -15t-23.5 -5t-29.5 -0.5q-29 0 -44 9.5t-15 41.5v127h-256q-15 0 -26 9t-17.5 22 t-9.5 28t-3 27q0 27 15 43l286 381q7 9 17 17t22 8h58q21 0 34 -14t13 -35v-367h8q17 0 29 -1.5t20 -6.5t12 -16t4 -29q0 -24 -3 -37.5t-11.5 -19.5t-22.5 -7.5t-36 -1.5v-127zM578 885q0 -120 -61.5 -175t-178.5 -55q-11 0 -32.5 1.5t-47.5 5.5t-53.5 9.5t-50.5 14t-38 19 t-16 24.5v8q0 2 1 3t1 3q4 9 7 23t8 26.5t13 21.5t22 9q5 0 9 -1t9 -3q42 -15 84.5 -26t87.5 -11q28 0 45.5 6t27.5 18.5t13.5 31.5t3.5 45q0 50 -23 66.5t-69 19.5q-32 2 -64.5 2h-64.5q-19 0 -27.5 8t-11 20t-1.5 27t1 29q0 19 12 27t29.5 10.5t36 1t31.5 -1.5 q34 0 58.5 2.5t39.5 13t22 31t7 57.5q0 40 -23.5 56t-71.5 16q-23 0 -45 -2.5t-45 -5.5q-11 -2 -22.5 -5.5t-22.5 -3.5q-15 0 -23 11t-12 26t-5 31t-1 27t4.5 17.5t12.5 12.5q6 5 28 8.5t47.5 6t48.5 3.5t31 1q51 0 94.5 -8t76 -29.5t51 -58.5t18.5 -95q0 -45 -11.5 -81.5 t-45.5 -67.5q52 -28 69 -71.5t17 -98.5z"></glyph><glyph glyph-name="questiondown" unicode="¿" d="M680 1262q0 -17 -10 -27l-111 -111q-10 -10 -24 -10q-15 0 -25 10l-111 111q-10 10 -10 25q0 16 10 26l111 111q10 10 25 10q14 0 24 -10l111 -111q10 -10 10 -24zM815 6q0 -15 -7 -20.5t-30 -10.5q-156 -26 -305 -26q-118 0 -197.5 35.5t-118 108.5t-38.5 186 q0 98 40.5 185t90.5 146t156 172q42 45 51.5 73.5t9.5 117.5q0 24 2 32.5t9.5 11.5t29.5 3h88q28 0 34.5 -12t6.5 -60v-43q0 -77 -38.5 -136.5t-121.5 -153.5t-125.5 -168.5t-42.5 -161.5t41.5 -127.5t132.5 -40.5q88 0 196.5 20.5t104.5 20.5q22 0 25 -41l6 -101v-8v-2z "></glyph><glyph glyph-name="Agrave" unicode="À" d="M1182 29q0 -29 -37 -29h-111q-28 0 -40.5 11.5t-22.5 39.5l-133 395q-24 -1 -75 -1.5t-86.5 -0.5h-78.5h-70.5t-78.5 0.5t-68 1.5l-123 -380q-12 -39 -25.5 -52.5t-46.5 -13.5h-94q-27 0 -35 2.5t-8 13.5q0 14 14 54l418 1235q17 44 31.5 57.5t54.5 13.5h84 q42 0 56.5 -13.5t29.5 -57.5l441 -1256q4 -16 4 -20zM784 606l-178 531l-172 -529h164q129 0 186 -2zM739 1534q0 -9 -9 -11.5t-48 -2.5h-59h-7v0q-24 0 -43 10q-12 9 -15.5 13t-19 24t-49.5 68t-38 53q-45 63 -68.5 95.5t-28.5 39.5q-14 17 -14 31q0 10 7.5 15t29.5 6t86 1 q58 0 70 -8q26 -22 190 -297q16 -27 16 -37z"></glyph><glyph glyph-name="Aacute" unicode="Á" d="M1182 29q0 -29 -37 -29h-111q-28 0 -40.5 11.5t-22.5 39.5l-133 395q-24 -1 -75 -1.5t-86.5 -0.5h-78.5h-70.5t-78.5 0.5t-68 1.5l-123 -380q-12 -39 -25.5 -52.5t-46.5 -13.5h-94q-27 0 -35 2.5t-8 13.5q0 14 14 54l418 1235q17 44 31.5 57.5t54.5 13.5h84 q42 0 56.5 -13.5t29.5 -57.5l441 -1256q4 -16 4 -20zM784 606l-178 531l-172 -529h164q129 0 186 -2zM891 1852q0 -14 -14 -31q-40 -55 -96 -135q-105 -147 -123 -158q-19 -10 -43 -10v0h-6h-60q-28 0 -39 1t-14.5 3.5t-3.5 9.5q0 10 16 37q164 275 191 297q8 8 67 8 q65 0 87.5 -1t30 -6t7.5 -15z"></glyph><glyph glyph-name="Acircumflex" unicode="Â" d="M1182 29q0 -29 -37 -29h-111q-28 0 -40.5 11.5t-22.5 39.5l-133 395q-24 -1 -75 -1.5t-86.5 -0.5h-78.5h-70.5t-78.5 0.5t-68 1.5l-123 -380q-12 -39 -25.5 -52.5t-46.5 -13.5h-94q-27 0 -35 2.5t-8 13.5q0 14 14 54l418 1235q17 44 31.5 57.5t54.5 13.5h84 q42 0 56.5 -13.5t29.5 -57.5l441 -1256q4 -16 4 -20zM784 606l-178 531l-172 -529h164q129 0 186 -2zM904 1524q0 -14 -107 -14q-29 0 -37 4q-10 5 -57 76q-18 27 -88 118q-60 -78 -88 -118q-45 -68 -60 -76q-8 -4 -37 -4q-104 0 -104 14q0 5 8 19l84 118q94 131 113 144 q12 10 84 10q71 0 84 -10q10 -7 48 -56.5t64 -87.5l84 -118q9 -16 9 -19z"></glyph><glyph glyph-name="Atilde" unicode="Ã" d="M1182 29q0 -29 -37 -29h-111q-28 0 -40.5 11.5t-22.5 39.5l-133 395q-24 -1 -75 -1.5t-86.5 -0.5h-78.5h-70.5t-78.5 0.5t-68 1.5l-123 -380q-12 -39 -25.5 -52.5t-46.5 -13.5h-94q-27 0 -35 2.5t-8 13.5q0 14 14 54l418 1235q17 44 31.5 57.5t54.5 13.5h84 q42 0 56.5 -13.5t29.5 -57.5l441 -1256q4 -16 4 -20zM784 606l-178 531l-172 -529h164q129 0 186 -2zM942 1712q0 -12 -16 -49q-64 -135 -174 -135q-39 0 -72 8.5t-73 25t-60.5 23.5t-44.5 7q-26 0 -42.5 -10.5t-39.5 -39.5q-9 -13 -16 -17.5t-19 -4.5h-67q-16 0 -20.5 3 t-4.5 11q0 17 25 60q69 133 172 133q31 0 64 -8t74 -21.5t70.5 -23t47.5 -9.5q36 0 67 49q5 9 10 12t21 3h72q26 0 26 -17z"></glyph><glyph glyph-name="Adieresis" unicode="Ä" d="M1182 29q0 -29 -37 -29h-111q-28 0 -40.5 11.5t-22.5 39.5l-133 395q-24 -1 -75 -1.5t-86.5 -0.5h-78.5h-70.5t-78.5 0.5t-68 1.5l-123 -380q-12 -39 -25.5 -52.5t-46.5 -13.5h-94q-27 0 -35 2.5t-8 13.5q0 14 14 54l418 1235q17 44 31.5 57.5t54.5 13.5h84 q42 0 56.5 -13.5t29.5 -57.5l441 -1256q4 -16 4 -20zM784 606l-178 531l-172 -529h164q129 0 186 -2zM863 1549q0 -13 -10 -22t-21 -9h-131q-10 0 -19.5 9.5t-9.5 21.5v137q0 13 9 22t20 9h131q12 0 21.5 -8.5t9.5 -22.5v-137zM543 1549q0 -12 -8.5 -21.5t-19.5 -9.5h-133 q-12 0 -20.5 9.5t-8.5 21.5v137q0 13 8 22t21 9h133q12 0 20 -9t8 -22v-137z"></glyph><glyph glyph-name="Aring" unicode="Å" d="M1182 29q0 -29 -37 -29h-111q-28 0 -40.5 11.5t-22.5 39.5l-133 395q-24 -1 -75 -1.5t-86.5 -0.5h-78.5h-70.5t-78.5 0.5t-68 1.5l-123 -380q-12 -39 -25.5 -52.5t-46.5 -13.5h-94q-27 0 -35 2.5t-8 13.5q0 14 14 54l418 1235q17 44 31.5 57.5t54.5 13.5h84 q42 0 56.5 -13.5t29.5 -57.5l441 -1256q4 -16 4 -20zM784 606l-178 531l-172 -529h164q129 0 186 -2zM764 1679q0 -65 -43.5 -111t-107.5 -46q-62 0 -107 47.5t-45 109.5q0 66 44.5 112t107.5 46q40 0 75.5 -21t55.5 -57.5t20 -79.5zM690 1679q0 34 -22 58t-55 24 t-55.5 -24.5t-22.5 -57.5t23 -56t55 -23q31 0 54 24t23 55z"></glyph><glyph glyph-name="AE" unicode="Æ" d="M1645 53q0 -33 -12 -43t-40 -10h-628q-39 0 -50.5 11t-11.5 48v582h-375l-266 -578q-18 -38 -31.5 -50.5t-35.5 -12.5h-93q-53 0 -53 35q0 11 21 55l491 1065q45 95 67 133t54.5 59t83.5 21h827q29 0 40.5 -10t11.5 -43v-58q0 -36 -9 -50.5t-41 -14.5h-2q-143 0 -257.5 2 t-233.5 6v-412q218 9 446 9h2q32 0 39.5 -14t7.5 -52v-29q0 -38 -8 -51.5t-39 -13.5h-2q-204 0 -446 8v-477q90 3 240 5.5t251 2.5h2q33 0 41.5 -14.5t8.5 -50.5v-58zM903 793v405h-69q-24 0 -34.5 -1.5t-16.5 -6t-14 -19t-17 -34.5l-156 -344h307z"></glyph><glyph glyph-name="Ccedilla" unicode="Ç" d="M1001 31q0 -21 -15 -28.5t-58 -10.5q-90 -7 -195 -10q-1 -2 -4 -7t-8 -12l-125 -166q-20 -26 -32.5 -33.5t-39.5 -7.5h-82q-39 0 -39 17q0 10 27 39l156 170l4 4q-76 7 -125 20q-98 25 -161 84t-96.5 145.5t-47 192.5t-13.5 240q0 228 33.5 370t100.5 216.5t166.5 101 t252.5 26.5q85 0 228 -10q43 -3 58 -10t15 -29v-71q0 -41 -7.5 -54.5t-35.5 -13.5q-33 0 -53.5 2.5t-55.5 5t-110 2.5q-67 0 -132.5 -7.5t-102.5 -25.5q-62 -29 -94 -95t-43 -164t-11 -248q0 -105 7.5 -186.5t30.5 -147t66.5 -105.5t114.5 -55q51 -10 164 -10q79 0 130 5 t89 5q28 0 35.5 -13.5t7.5 -54.5v-71z"></glyph><glyph glyph-name="Egrave" unicode="È" d="M920 53q0 -33 -12 -43t-40 -10h-628q-40 0 -52 11t-12 48v1256q0 35 14 44t50 9h628q29 0 40.5 -10t11.5 -43v-58q0 -38 -8.5 -51.5t-41.5 -13.5h-2q-237 0 -491 8v-412q218 9 446 9h2q33 0 41 -14t8 -52v-29q0 -38 -8.5 -51.5t-40.5 -13.5h-2q-204 0 -446 8v-477 q254 8 491 8h2q34 0 42 -13.5t8 -51.5v-58zM690 1534q0 -9 -9 -11.5t-48 -2.5h-59h-7v0q-24 0 -43 10q-12 9 -15.5 13t-19 24t-49.5 68t-38 53q-45 63 -68.5 95.5t-28.5 39.5q-14 17 -14 31q0 10 7.5 15t29.5 6t86 1q58 0 70 -8q26 -22 190 -297q16 -27 16 -37z"></glyph><glyph glyph-name="Eacute" unicode="É" d="M920 53q0 -33 -12 -43t-40 -10h-628q-40 0 -52 11t-12 48v1256q0 35 14 44t50 9h628q29 0 40.5 -10t11.5 -43v-58q0 -38 -8.5 -51.5t-41.5 -13.5h-2q-237 0 -491 8v-412q218 9 446 9h2q33 0 41 -14t8 -52v-29q0 -38 -8.5 -51.5t-40.5 -13.5h-2q-204 0 -446 8v-477 q254 8 491 8h2q34 0 42 -13.5t8 -51.5v-58zM826 1852q0 -14 -14 -31q-40 -55 -96 -135q-105 -147 -123 -158q-19 -10 -43 -10v0h-6h-60q-28 0 -39 1t-14.5 3.5t-3.5 9.5q0 10 16 37q164 275 191 297q8 8 67 8q65 0 87.5 -1t30 -6t7.5 -15z"></glyph><glyph glyph-name="Ecircumflex" unicode="Ê" d="M920 53q0 -33 -12 -43t-40 -10h-628q-40 0 -52 11t-12 48v1256q0 35 14 44t50 9h628q29 0 40.5 -10t11.5 -43v-58q0 -38 -8.5 -51.5t-41.5 -13.5h-2q-237 0 -491 8v-412q218 9 446 9h2q33 0 41 -14t8 -52v-29q0 -38 -8.5 -51.5t-40.5 -13.5h-2q-204 0 -446 8v-477 q254 8 491 8h2q34 0 42 -13.5t8 -51.5v-58zM839 1524q0 -14 -107 -14q-29 0 -37 4q-10 5 -57 76q-18 27 -88 118q-60 -78 -88 -118q-45 -68 -60 -76q-8 -4 -37 -4q-104 0 -104 14q0 5 8 19l84 118q94 131 113 144q12 10 84 10q71 0 84 -10q10 -7 48 -56.5t64 -87.5l84 -118 q9 -16 9 -19z"></glyph><glyph glyph-name="Edieresis" unicode="Ë" d="M920 53q0 -33 -12 -43t-40 -10h-628q-40 0 -52 11t-12 48v1256q0 35 14 44t50 9h628q29 0 40.5 -10t11.5 -43v-58q0 -38 -8.5 -51.5t-41.5 -13.5h-2q-237 0 -491 8v-412q218 9 446 9h2q33 0 41 -14t8 -52v-29q0 -38 -8.5 -51.5t-40.5 -13.5h-2q-204 0 -446 8v-477 q254 8 491 8h2q34 0 42 -13.5t8 -51.5v-58zM796 1549q0 -13 -10 -22t-21 -9h-131q-10 0 -19.5 9.5t-9.5 21.5v137q0 13 9 22t20 9h131q12 0 21.5 -8.5t9.5 -22.5v-137zM476 1549q0 -12 -8.5 -21.5t-19.5 -9.5h-133q-12 0 -20.5 9.5t-8.5 21.5v137q0 13 8 22t21 9h133 q12 0 20 -9t8 -22v-137z"></glyph><glyph glyph-name="Igrave" unicode="Ì" d="M387 59q0 -35 -11.5 -47t-39.5 -12h-86q-39 0 -51.5 11t-12.5 48v1256q0 35 14 44t50 9h86q32 0 41.5 -11.5t9.5 -41.5v-1256zM487 1534q0 -9 -9 -11.5t-48 -2.5h-59h-7v0q-24 0 -43 10q-12 9 -15.5 13t-19 24t-49.5 68t-38 53q-45 63 -68.5 95.5t-28.5 39.5 q-14 17 -14 31q0 10 7.5 15t29.5 6t86 1q58 0 70 -8q26 -22 190 -297q16 -27 16 -37z"></glyph><glyph glyph-name="Iacute" unicode="Í" d="M387 59q0 -35 -11.5 -47t-39.5 -12h-86q-39 0 -51.5 11t-12.5 48v1256q0 35 14 44t50 9h86q32 0 41.5 -11.5t9.5 -41.5v-1256zM549 1852q0 -14 -14 -31q-40 -55 -96 -135q-105 -147 -123 -158q-19 -10 -43 -10v0h-6h-60q-28 0 -39 1t-14.5 3.5t-3.5 9.5q0 10 16 37 q164 275 191 297q8 8 67 8q65 0 87.5 -1t30 -6t7.5 -15z"></glyph><glyph glyph-name="Icircumflex" unicode="Î" d="M387 59q0 -35 -11.5 -47t-39.5 -12h-86q-39 0 -51.5 11t-12.5 48v1256q0 35 14 44t50 9h86q32 0 41.5 -11.5t9.5 -41.5v-1256zM575 1524q0 -14 -107 -14q-29 0 -37 4q-10 5 -57 76q-18 27 -88 118q-60 -78 -88 -118q-45 -68 -60 -76q-8 -4 -37 -4q-104 0 -104 14 q0 5 8 19l84 118q94 131 113 144q12 10 84 10q71 0 84 -10q10 -7 48 -56.5t64 -87.5l84 -118q9 -16 9 -19z"></glyph><glyph glyph-name="Idieresis" unicode="Ï" d="M387 59q0 -35 -11.5 -47t-39.5 -12h-86q-39 0 -51.5 11t-12.5 48v1256q0 35 14 44t50 9h86q32 0 41.5 -11.5t9.5 -41.5v-1256zM542 1549q0 -13 -10 -22t-21 -9h-131q-10 0 -19.5 9.5t-9.5 21.5v137q0 13 9 22t20 9h131q12 0 21.5 -8.5t9.5 -22.5v-137zM222 1549 q0 -12 -8.5 -21.5t-19.5 -9.5h-133q-12 0 -20.5 9.5t-8.5 21.5v137q0 13 8 22t21 9h133q12 0 20 -9t8 -22v-137z"></glyph><glyph glyph-name="Eth" unicode="Ð" d="M1217 668q0 -175 -24 -303.5t-93.5 -217.5t-198.5 -122q-100 -25 -237 -25h-353q-40 0 -51.5 11t-11.5 48v584h-76q-34 0 -43.5 10.5t-9.5 44.5v58q0 47 53 47h76v512q0 35 13.5 44t49.5 9h353q157 0 255 -25t165 -96.5t100 -211t33 -367.5zM1008 664q0 215 -26 332.5 t-122 160.5q-36 18 -102 25.5t-133 7.5q-48 0 -84.5 -1.5t-55.5 -3t-36 -3.5v-379h213q34 0 44.5 -9.5t10.5 -37.5v-39q0 -37 -3.5 -50.5t-14.5 -18.5t-37 -5h-213v-457q17 -1 36 -3t55.5 -3.5t84.5 -1.5h53q54 0 110 10q92 19 140 78t64 153.5t16 244.5z"></glyph><glyph glyph-name="Ntilde" unicode="Ñ" d="M1198 59q0 -35 -11.5 -47t-39.5 -12h-68h-14h-2q-22 0 -37 5.5t-31 25.5q-133 190 -637 975v-947q0 -35 -11.5 -47t-39.5 -12h-86q-40 0 -51.5 11t-11.5 48v1256q0 36 13 44.5t50 8.5h58q35 0 47.5 -4.5t25.5 -24.5q26 -38 107 -159t165.5 -250.5t187 -286.5t185.5 -283 v955q0 36 13 44.5t49 8.5h88q32 0 41.5 -11.5t9.5 -41.5v-1256zM1026 1705q0 -12 -16 -49q-64 -135 -174 -135q-39 0 -72 8.5t-73 25t-60.5 23.5t-44.5 7q-26 0 -42.5 -10.5t-39.5 -39.5q-9 -13 -16 -17.5t-19 -4.5h-67q-16 0 -20.5 3t-4.5 11q0 17 25 60q69 133 172 133 q31 0 64 -8t74 -21.5t70.5 -23t47.5 -9.5q36 0 67 49q5 9 10 12t21 3h72q26 0 26 -17z"></glyph><glyph glyph-name="Ograve" unicode="Ò" d="M1237 682q0 -80 -5.5 -155.5t-18.5 -138t-39 -126.5t-70 -123q-75 -98 -175.5 -140t-236.5 -42t-236.5 42t-174.5 140q-54 73 -84.5 162t-40 180t-9.5 201t10 201.5t39.5 181t84.5 162.5q75 102 175 141t236 39t236 -39.5t176 -140.5q44 -57 70 -122t39 -128.5t18.5 -139 t5.5 -155.5zM1026 682q0 275 -49 387q-70 160 -285 160q-214 0 -284 -160q-50 -114 -50 -387q0 -271 50 -385q37 -86 111 -123t173 -37q215 0 285 160q49 112 49 385zM852 1534q0 -9 -9 -11.5t-48 -2.5h-59h-7v0q-24 0 -43 10q-12 9 -15.5 13t-19 24t-49.5 68t-38 53 q-45 63 -68.5 95.5t-28.5 39.5q-14 17 -14 31q0 10 7.5 15t29.5 6t86 1q58 0 70 -8q26 -22 190 -297q16 -27 16 -37z"></glyph><glyph glyph-name="Oacute" unicode="Ó" d="M1237 682q0 -80 -5.5 -155.5t-18.5 -138t-39 -126.5t-70 -123q-75 -98 -175.5 -140t-236.5 -42t-236.5 42t-174.5 140q-54 73 -84.5 162t-40 180t-9.5 201t10 201.5t39.5 181t84.5 162.5q75 102 175 141t236 39t236 -39.5t176 -140.5q44 -57 70 -122t39 -128.5t18.5 -139 t5.5 -155.5zM1026 682q0 275 -49 387q-70 160 -285 160q-214 0 -284 -160q-50 -114 -50 -387q0 -271 50 -385q37 -86 111 -123t173 -37q215 0 285 160q49 112 49 385zM977 1852q0 -14 -14 -31q-40 -55 -96 -135q-105 -147 -123 -158q-19 -10 -43 -10v0h-6h-60q-28 0 -39 1 t-14.5 3.5t-3.5 9.5q0 10 16 37q164 275 191 297q8 8 67 8q65 0 87.5 -1t30 -6t7.5 -15z"></glyph><glyph glyph-name="Ocircumflex" unicode="Ô" d="M1237 682q0 -80 -5.5 -155.5t-18.5 -138t-39 -126.5t-70 -123q-75 -98 -175.5 -140t-236.5 -42t-236.5 42t-174.5 140q-54 73 -84.5 162t-40 180t-9.5 201t10 201.5t39.5 181t84.5 162.5q75 102 175 141t236 39t236 -39.5t176 -140.5q44 -57 70 -122t39 -128.5t18.5 -139 t5.5 -155.5zM1026 682q0 275 -49 387q-70 160 -285 160q-214 0 -284 -160q-50 -114 -50 -387q0 -271 50 -385q37 -86 111 -123t173 -37q215 0 285 160q49 112 49 385zM973 1524q0 -14 -107 -14q-29 0 -37 4q-10 5 -57 76q-18 27 -88 118q-60 -78 -88 -118q-45 -68 -60 -76 q-8 -4 -37 -4q-104 0 -104 14q0 5 8 19l84 118q94 131 113 144q12 10 84 10q71 0 84 -10q10 -7 48 -56.5t64 -87.5l84 -118q9 -16 9 -19z"></glyph><glyph glyph-name="Otilde" unicode="Õ" d="M1237 682q0 -80 -5.5 -155.5t-18.5 -138t-39 -126.5t-70 -123q-75 -98 -175.5 -140t-236.5 -42t-236.5 42t-174.5 140q-54 73 -84.5 162t-40 180t-9.5 201t10 201.5t39.5 181t84.5 162.5q75 102 175 141t236 39t236 -39.5t176 -140.5q44 -57 70 -122t39 -128.5t18.5 -139 t5.5 -155.5zM1026 682q0 275 -49 387q-70 160 -285 160q-214 0 -284 -160q-50 -114 -50 -387q0 -271 50 -385q37 -86 111 -123t173 -37q215 0 285 160q49 112 49 385zM1019 1705q0 -12 -16 -49q-64 -135 -174 -135q-39 0 -72 8.5t-73 25t-60.5 23.5t-44.5 7 q-26 0 -42.5 -10.5t-39.5 -39.5q-9 -13 -16 -17.5t-19 -4.5h-67q-16 0 -20.5 3t-4.5 11q0 17 25 60q69 133 172 133q31 0 64 -8t74 -21.5t70.5 -23t47.5 -9.5q36 0 67 49q5 9 10 12t21 3h72q26 0 26 -17z"></glyph><glyph glyph-name="Odieresis" unicode="Ö" d="M1237 682q0 -80 -5.5 -155.5t-18.5 -138t-39 -126.5t-70 -123q-75 -98 -175.5 -140t-236.5 -42t-236.5 42t-174.5 140q-54 73 -84.5 162t-40 180t-9.5 201t10 201.5t39.5 181t84.5 162.5q75 102 175 141t236 39t236 -39.5t176 -140.5q44 -57 70 -122t39 -128.5t18.5 -139 t5.5 -155.5zM1026 682q0 275 -49 387q-70 160 -285 160q-214 0 -284 -160q-50 -114 -50 -387q0 -271 50 -385q37 -86 111 -123t173 -37q215 0 285 160q49 112 49 385zM949 1549q0 -13 -10 -22t-21 -9h-131q-10 0 -19.5 9.5t-9.5 21.5v137q0 13 9 22t20 9h131q12 0 21.5 -8.5 t9.5 -22.5v-137zM629 1549q0 -12 -8.5 -21.5t-19.5 -9.5h-133q-12 0 -20.5 9.5t-8.5 21.5v137q0 13 8 22t21 9h133q12 0 20 -9t8 -22v-137z"></glyph><glyph glyph-name="multiply" unicode="×" d="M842 215l-107 -106l-280 276l-279 -276l-106 106l278 274l-278 277l106 106l279 -276l280 276l107 -106l-279 -277z"></glyph><glyph glyph-name="Oslash" unicode="Ø" d="M1241 1303q0 -12 -6 -21l-105 -131q35 -66 55 -144t26 -152.5t6 -172.5q0 -110 -9.5 -201t-40 -180t-84.5 -162q-48 -66 -110 -106t-136 -58t-165 -18q-241 0 -373 137l-84 -108q-11 -11 -18 -11q-8 0 -23 11l-59 53q-6 3 -6 14q0 13 6 19l104 133q-30 55 -47 109.5 t-27 115t-14 125.5t-4 127q0 80 5 150t19.5 140t40.5 133t70 122q76 102 175.5 141t234.5 39q82 0 147 -12t125 -43.5t109 -85.5l82 104q10 12 20 12q6 0 19 -12l47 -39q20 -15 20 -28zM932 1114q-79 115 -260 115q-215 0 -285 -160q-49 -112 -49 -387q0 -177 22 -297z M1008 682q0 168 -21 285l-569 -723q79 -107 254 -107q216 0 286 160q29 64 39.5 171.5t10.5 213.5z"></glyph><glyph glyph-name="Ugrave" unicode="Ù" d="M1182 860q0 -224 -4.5 -326.5t-20.5 -195.5q-24 -167 -115 -262q-35 -38 -86.5 -61.5t-124.5 -34.5t-167 -11q-92 0 -165.5 11t-125 34.5t-86.5 61.5q-91 95 -115 262q-15 93 -20 195.5t-5 326.5v455q0 35 14 44t50 9h86q32 0 41.5 -11.5t9.5 -41.5v-635q0 -125 4.5 -199 t13.5 -117t29 -88q21 -48 54.5 -74.5t86.5 -39t128 -12.5q115 0 178 29.5t92 96.5q27 59 37 139t10 265v635q0 36 14.5 44.5t51.5 8.5h86q32 0 40.5 -11.5t8.5 -41.5v-455zM809 1534q0 -9 -9 -11.5t-48 -2.5h-59h-7v0q-24 0 -43 10q-12 9 -15.5 13t-19 24t-49.5 68t-38 53 q-45 63 -68.5 95.5t-28.5 39.5q-14 17 -14 31q0 10 7.5 15t29.5 6t86 1q58 0 70 -8q26 -22 190 -297q16 -27 16 -37z"></glyph><glyph glyph-name="Uacute" unicode="Ú" d="M1182 860q0 -224 -4.5 -326.5t-20.5 -195.5q-24 -167 -115 -262q-35 -38 -86.5 -61.5t-124.5 -34.5t-167 -11q-92 0 -165.5 11t-125 34.5t-86.5 61.5q-91 95 -115 262q-15 93 -20 195.5t-5 326.5v455q0 35 14 44t50 9h86q32 0 41.5 -11.5t9.5 -41.5v-635q0 -125 4.5 -199 t13.5 -117t29 -88q21 -48 54.5 -74.5t86.5 -39t128 -12.5q115 0 178 29.5t92 96.5q27 59 37 139t10 265v635q0 36 14.5 44.5t51.5 8.5h86q32 0 40.5 -11.5t8.5 -41.5v-455zM963 1852q0 -14 -14 -31q-40 -55 -96 -135q-105 -147 -123 -158q-19 -10 -43 -10v0h-6h-60 q-28 0 -39 1t-14.5 3.5t-3.5 9.5q0 10 16 37q164 275 191 297q8 8 67 8q65 0 87.5 -1t30 -6t7.5 -15z"></glyph><glyph glyph-name="Ucircumflex" unicode="Û" d="M1182 860q0 -224 -4.5 -326.5t-20.5 -195.5q-24 -167 -115 -262q-35 -38 -86.5 -61.5t-124.5 -34.5t-167 -11q-92 0 -165.5 11t-125 34.5t-86.5 61.5q-91 95 -115 262q-15 93 -20 195.5t-5 326.5v455q0 35 14 44t50 9h86q32 0 41.5 -11.5t9.5 -41.5v-635q0 -125 4.5 -199 t13.5 -117t29 -88q21 -48 54.5 -74.5t86.5 -39t128 -12.5q115 0 178 29.5t92 96.5q27 59 37 139t10 265v635q0 36 14.5 44.5t51.5 8.5h86q32 0 40.5 -11.5t8.5 -41.5v-455zM961 1524q0 -14 -107 -14q-29 0 -37 4q-10 5 -57 76q-18 27 -88 118q-60 -78 -88 -118 q-45 -68 -60 -76q-8 -4 -37 -4q-104 0 -104 14q0 5 8 19l84 118q94 131 113 144q12 10 84 10q71 0 84 -10q10 -7 48 -56.5t64 -87.5l84 -118q9 -16 9 -19z"></glyph><glyph glyph-name="Udieresis" unicode="Ü" d="M1182 860q0 -224 -4.5 -326.5t-20.5 -195.5q-24 -167 -115 -262q-35 -38 -86.5 -61.5t-124.5 -34.5t-167 -11q-92 0 -165.5 11t-125 34.5t-86.5 61.5q-91 95 -115 262q-15 93 -20 195.5t-5 326.5v455q0 35 14 44t50 9h86q32 0 41.5 -11.5t9.5 -41.5v-635q0 -125 4.5 -199 t13.5 -117t29 -88q21 -48 54.5 -74.5t86.5 -39t128 -12.5q115 0 178 29.5t92 96.5q27 59 37 139t10 265v635q0 36 14.5 44.5t51.5 8.5h86q32 0 40.5 -11.5t8.5 -41.5v-455zM930 1549q0 -13 -10 -22t-21 -9h-131q-10 0 -19.5 9.5t-9.5 21.5v137q0 13 9 22t20 9h131 q12 0 21.5 -8.5t9.5 -22.5v-137zM610 1549q0 -12 -8.5 -21.5t-19.5 -9.5h-133q-12 0 -20.5 9.5t-8.5 21.5v137q0 13 8 22t21 9h133q12 0 20 -9t8 -22v-137z"></glyph><glyph glyph-name="Yacute" unicode="Ý" d="M1114 1329q0 -13 -12 -39l-406 -758v-473q0 -35 -11.5 -47t-39.5 -12h-86q-40 0 -51.5 11t-11.5 48v455l-414 776q-12 23 -12 45q0 33 43 33h108q32 0 45 -9.5t25 -33.5l305 -588l315 588q14 25 26 34t44 9h88q45 0 45 -33v-6zM803 1852q0 -14 -14 -31q-40 -55 -96 -135 q-105 -147 -123 -158q-19 -10 -43 -10v0h-6h-60q-28 0 -39 1t-14.5 3.5t-3.5 9.5q0 10 16 37q164 275 191 297q8 8 67 8q65 0 87.5 -1t30 -6t7.5 -15z"></glyph><glyph glyph-name="Thorn" unicode="Þ" d="M1034 692q0 -109 -16.5 -185t-51 -127.5t-87.5 -78.5q-51 -25 -110.5 -34t-164.5 -9h-227v-199q0 -35 -11 -47t-40 -12h-86q-40 0 -52 11t-12 48v1256q0 35 14 44t50 9h86q29 0 40 -12t11 -47v-148h237q102 0 161.5 -6.5t92 -24.5t70.5 -59q96 -107 96 -379zM836 709 q0 115 -18 176t-56 82q-39 20 -148 20h-8h-22q-73 0 -207 -4v-551h266q120 0 162 55q19 30 25 75.5t6 146.5z"></glyph><glyph glyph-name="germandbls" unicode="ß" d="M958 492q0 -149 -36.5 -264.5t-123.5 -183t-231 -67.5h-8h-2q-115 0 -117 31l-6 82v16q0 25 7 34.5t24 9.5q16 0 62 -5.5t59 -5.5q65 0 104.5 39.5t57.5 125.5t18 222q0 117 -28.5 169t-83.5 64.5t-179 12.5q-27 0 -34 13t-7 59q0 49 9.5 61.5t48.5 12.5q94 0 140 8 t71.5 38.5t25.5 96.5q0 70 -15 106t-54 49t-123 13q-56 0 -111 -8q-52 -7 -71 -33t-19 -96v-1033q0 -35 -9 -47t-36 -12h-72q-48 0 -60 9.5t-12 49.5v979q0 109 17 172.5t69 108.5q42 35 116 49t218 14q130 0 201 -19.5t108 -83.5t37 -189q0 -121 -30 -174t-109 -72 q80 -14 120.5 -64.5t52 -121.5t11.5 -166z"></glyph><glyph glyph-name="agrave" unicode="à" d="M893 59q0 -35 -9 -47t-36 -12h-74q-47 0 -58 9.5t-11 49.5v43q-174 -129 -332 -129q-128 0 -191 70.5t-63 212.5q0 225 149 283q61 23 172 35.5t265 13.5q0 58 -5 107.5t-16 76.5q-9 26 -40 41.5t-75 15.5q-114 0 -313 -53q-16 -4 -25 -4q-26 0 -26 39v76q0 27 6 38.5 t22 14.5q79 16 174 28.5t154 12.5q81 0 152 -18t110 -68q39 -47 54.5 -109t15.5 -213v-514zM705 250v186q-100 4 -138 4q-115 0 -171 -11.5t-76.5 -45t-20.5 -104.5q0 -85 23.5 -122.5t78.5 -37.5q58 0 150 39t154 92zM672 1169q0 -9 -9 -11.5t-48 -2.5h-59h-7v0 q-24 0 -43 10q-12 9 -15.5 13t-19 24t-49.5 68t-38 53q-45 63 -68.5 95.5t-28.5 39.5q-14 17 -14 31q0 10 7.5 15t29.5 6t86 1q58 0 70 -8q26 -22 190 -297q16 -27 16 -37z"></glyph><glyph glyph-name="aacute" unicode="á" d="M893 59q0 -35 -9 -47t-36 -12h-74q-47 0 -58 9.5t-11 49.5v43q-174 -129 -332 -129q-128 0 -191 70.5t-63 212.5q0 225 149 283q61 23 172 35.5t265 13.5q0 58 -5 107.5t-16 76.5q-9 26 -40 41.5t-75 15.5q-114 0 -313 -53q-16 -4 -25 -4q-26 0 -26 39v76q0 27 6 38.5 t22 14.5q79 16 174 28.5t154 12.5q81 0 152 -18t110 -68q39 -47 54.5 -109t15.5 -213v-514zM705 250v186q-100 4 -138 4q-115 0 -171 -11.5t-76.5 -45t-20.5 -104.5q0 -85 23.5 -122.5t78.5 -37.5q58 0 150 39t154 92zM813 1489q0 -14 -14 -31q-40 -55 -96 -135 q-105 -147 -123 -158q-19 -10 -43 -10v0h-6h-60q-28 0 -39 1t-14.5 3.5t-3.5 9.5q0 10 16 37q164 275 191 297q8 8 67 8q65 0 87.5 -1t30 -6t7.5 -15z"></glyph><glyph glyph-name="acircumflex" unicode="â" d="M893 59q0 -35 -9 -47t-36 -12h-74q-47 0 -58 9.5t-11 49.5v43q-174 -129 -332 -129q-128 0 -191 70.5t-63 212.5q0 225 149 283q61 23 172 35.5t265 13.5q0 58 -5 107.5t-16 76.5q-9 26 -40 41.5t-75 15.5q-114 0 -313 -53q-16 -4 -25 -4q-26 0 -26 39v76q0 27 6 38.5 t22 14.5q79 16 174 28.5t154 12.5q81 0 152 -18t110 -68q39 -47 54.5 -109t15.5 -213v-514zM705 250v186q-100 4 -138 4q-115 0 -171 -11.5t-76.5 -45t-20.5 -104.5q0 -85 23.5 -122.5t78.5 -37.5q58 0 150 39t154 92zM807 1116q0 -14 -107 -14q-29 0 -37 4q-10 5 -57 76 q-18 27 -88 118q-60 -78 -88 -118q-45 -68 -60 -76q-8 -4 -37 -4q-104 0 -104 14q0 5 8 19l84 118q94 131 113 144q12 10 84 10q71 0 84 -10q10 -7 48 -56.5t64 -87.5l84 -118q9 -16 9 -19z"></glyph><glyph glyph-name="atilde" unicode="ã" d="M893 59q0 -35 -9 -47t-36 -12h-74q-47 0 -58 9.5t-11 49.5v43q-174 -129 -332 -129q-128 0 -191 70.5t-63 212.5q0 225 149 283q61 23 172 35.5t265 13.5q0 58 -5 107.5t-16 76.5q-9 26 -40 41.5t-75 15.5q-114 0 -313 -53q-16 -4 -25 -4q-26 0 -26 39v76q0 27 6 38.5 t22 14.5q79 16 174 28.5t154 12.5q81 0 152 -18t110 -68q39 -47 54.5 -109t15.5 -213v-514zM705 250v186q-100 4 -138 4q-115 0 -171 -11.5t-76.5 -45t-20.5 -104.5q0 -85 23.5 -122.5t78.5 -37.5q58 0 150 39t154 92zM832 1298q0 -12 -16 -49q-64 -135 -174 -135 q-39 0 -72 8.5t-73 25t-60.5 23.5t-44.5 7q-26 0 -42.5 -10.5t-39.5 -39.5q-9 -13 -16 -17.5t-19 -4.5h-67q-16 0 -20.5 3t-4.5 11q0 17 25 60q69 133 172 133q31 0 64 -8t74 -21.5t70.5 -23t47.5 -9.5q36 0 67 49q5 9 10 12t21 3h72q26 0 26 -17z"></glyph><glyph glyph-name="adieresis" unicode="ä" d="M893 59q0 -35 -9 -47t-36 -12h-74q-47 0 -58 9.5t-11 49.5v43q-174 -129 -332 -129q-128 0 -191 70.5t-63 212.5q0 225 149 283q61 23 172 35.5t265 13.5q0 58 -5 107.5t-16 76.5q-9 26 -40 41.5t-75 15.5q-114 0 -313 -53q-16 -4 -25 -4q-26 0 -26 39v76q0 27 6 38.5 t22 14.5q79 16 174 28.5t154 12.5q81 0 152 -18t110 -68q39 -47 54.5 -109t15.5 -213v-514zM705 250v186q-100 4 -138 4q-115 0 -171 -11.5t-76.5 -45t-20.5 -104.5q0 -85 23.5 -122.5t78.5 -37.5q58 0 150 39t154 92zM786 1137q0 -13 -10 -22t-21 -9h-131q-10 0 -19.5 9.5 t-9.5 21.5v137q0 13 9 22t20 9h131q12 0 21.5 -8.5t9.5 -22.5v-137zM466 1137q0 -12 -8.5 -21.5t-19.5 -9.5h-133q-12 0 -20.5 9.5t-8.5 21.5v137q0 13 8 22t21 9h133q12 0 20 -9t8 -22v-137z"></glyph><glyph glyph-name="aring" unicode="å" d="M893 59q0 -35 -9 -47t-36 -12h-74q-47 0 -58 9.5t-11 49.5v43q-174 -129 -332 -129q-128 0 -191 70.5t-63 212.5q0 225 149 283q61 23 172 35.5t265 13.5q0 58 -5 107.5t-16 76.5q-9 26 -40 41.5t-75 15.5q-114 0 -313 -53q-16 -4 -25 -4q-26 0 -26 39v76q0 27 6 38.5 t22 14.5q79 16 174 28.5t154 12.5q81 0 152 -18t110 -68q39 -47 54.5 -109t15.5 -213v-514zM705 250v186q-100 4 -138 4q-115 0 -171 -11.5t-76.5 -45t-20.5 -104.5q0 -85 23.5 -122.5t78.5 -37.5q58 0 150 39t154 92zM698 1212q0 -65 -43.5 -111t-107.5 -46 q-62 0 -107 47.5t-45 109.5q0 66 44.5 112t107.5 46q40 0 75.5 -21t55.5 -57.5t20 -79.5zM624 1212q0 34 -22 58t-55 24t-55.5 -24.5t-22.5 -57.5t23 -56t55 -23q31 0 54 24t23 55z"></glyph><glyph glyph-name="ae" unicode="æ" d="M1466 539q0 -64 -7.5 -79.5t-41.5 -15.5h-524q0 -119 11.5 -193t56.5 -97q55 -29 149 -29q70 0 130 9.5t119.5 23.5t70.5 14q17 0 20 -61q2 -15 2 -50q0 -32 -7 -43t-36 -16q-158 -29 -301 -29q-105 0 -185.5 27t-123.5 74q-26 24 -41 61q-208 -162 -385 -162 q-128 0 -191 70.5t-63 212.5q0 225 149 283q61 23 172 35.5t265 13.5q0 58 -5 107.5t-16 76.5q-9 26 -40 41.5t-75 15.5q-114 0 -313 -53q-16 -4 -25 -4q-26 0 -26 39v76q0 27 6 38.5t22 14.5q79 16 174 28.5t154 12.5q77 0 146.5 -17t109.5 -61q94 80 283 80 q237 0 311 -137q36 -63 45.5 -131.5t9.5 -175.5zM1286 649q0 104 -37.5 141t-146.5 37q-89 0 -132.5 -16.5t-60 -62t-16.5 -140.5v-20h391q2 37 2 61zM717 256q-8 76 -8 180q-100 4 -142 4q-115 0 -171 -11.5t-76.5 -45t-20.5 -104.5q0 -85 23.5 -122.5t78.5 -37.5 q58 0 153 42t163 95z"></glyph><glyph glyph-name="ccedilla" unicode="ç" d="M795 25q0 -24 -13.5 -30.5t-68.5 -12.5q-37 -5 -115 -9q-2 -2 -4 -5t-8 -9l-111 -149q-16 -22 -29 -28.5t-36 -6.5h-74q-35 0 -35 14q0 8 25 35l139 151q-141 8 -214.5 54t-102.5 150.5t-29 297.5q0 161 19.5 257.5t65 150.5t127 76t214.5 22q68 0 168 -10 q58 -6 70 -11.5t12 -29.5q0 -61 -9 -103q-5 -30 -28 -30q-12 0 -117 12t-158 12q-106 0 -139 -53q-31 -49 -31 -293q0 -67 1.5 -121t4.5 -84q4 -50 21 -81.5t51 -44.5t92 -13q53 0 155 12.5t120 12.5q12 0 20 -8q6 -8 11.5 -44.5t5.5 -80.5z"></glyph><glyph glyph-name="egrave" unicode="è" d="M883 508q0 -63 -7.5 -78.5t-41.5 -15.5h-525q0 -112 11 -174.5t57 -85.5q56 -29 149 -29q70 0 129.5 9.5t119 23.5t71.5 14q15 0 20 -61q2 -15 2 -50q0 -32 -7 -43t-36 -16q-158 -29 -301 -29q-106 0 -189 27t-126 74q-48 51 -69 145t-21 252q0 143 12.5 226.5 t48.5 146.5q78 139 336 139q237 0 311 -137q37 -65 46.5 -144t9.5 -194zM702 649q0 105 -37.5 141.5t-148.5 36.5q-87 0 -131 -19t-60 -67t-16 -143v-41h391q2 37 2 92zM641 1169q0 -9 -9 -11.5t-48 -2.5h-59h-7v0q-24 0 -43 10q-12 9 -15.5 13t-19 24t-49.5 68t-38 53 q-45 63 -68.5 95.5t-28.5 39.5q-14 17 -14 31q0 10 7.5 15t29.5 6t86 1q58 0 70 -8q26 -22 190 -297q16 -27 16 -37z"></glyph><glyph glyph-name="eacute" unicode="é" d="M883 508q0 -63 -7.5 -78.5t-41.5 -15.5h-525q0 -112 11 -174.5t57 -85.5q56 -29 149 -29q70 0 129.5 9.5t119 23.5t71.5 14q15 0 20 -61q2 -15 2 -50q0 -32 -7 -43t-36 -16q-158 -29 -301 -29q-106 0 -189 27t-126 74q-48 51 -69 145t-21 252q0 143 12.5 226.5 t48.5 146.5q78 139 336 139q237 0 311 -137q37 -65 46.5 -144t9.5 -194zM702 649q0 105 -37.5 141.5t-148.5 36.5q-87 0 -131 -19t-60 -67t-16 -143v-41h391q2 37 2 92zM803 1489q0 -14 -14 -31q-40 -55 -96 -135q-105 -147 -123 -158q-19 -10 -43 -10v0h-6h-60q-28 0 -39 1 t-14.5 3.5t-3.5 9.5q0 10 16 37q164 275 191 297q8 8 67 8q65 0 87.5 -1t30 -6t7.5 -15z"></glyph><glyph glyph-name="ecircumflex" unicode="ê" d="M883 508q0 -63 -7.5 -78.5t-41.5 -15.5h-525q0 -112 11 -174.5t57 -85.5q56 -29 149 -29q70 0 129.5 9.5t119 23.5t71.5 14q15 0 20 -61q2 -15 2 -50q0 -32 -7 -43t-36 -16q-158 -29 -301 -29q-106 0 -189 27t-126 74q-48 51 -69 145t-21 252q0 143 12.5 226.5 t48.5 146.5q78 139 336 139q237 0 311 -137q37 -65 46.5 -144t9.5 -194zM702 649q0 105 -37.5 141.5t-148.5 36.5q-87 0 -131 -19t-60 -67t-16 -143v-41h391q2 37 2 92zM810 1116q0 -14 -107 -14q-29 0 -37 4q-10 5 -57 76q-18 27 -88 118q-60 -78 -88 -118q-45 -68 -60 -76 q-8 -4 -37 -4q-104 0 -104 14q0 5 8 19l84 118q94 131 113 144q12 10 84 10q71 0 84 -10q10 -7 48 -56.5t64 -87.5l84 -118q9 -16 9 -19z"></glyph><glyph glyph-name="edieresis" unicode="ë" d="M883 508q0 -63 -7.5 -78.5t-41.5 -15.5h-525q0 -112 11 -174.5t57 -85.5q56 -29 149 -29q70 0 129.5 9.5t119 23.5t71.5 14q15 0 20 -61q2 -15 2 -50q0 -32 -7 -43t-36 -16q-158 -29 -301 -29q-106 0 -189 27t-126 74q-48 51 -69 145t-21 252q0 143 12.5 226.5 t48.5 146.5q78 139 336 139q237 0 311 -137q37 -65 46.5 -144t9.5 -194zM702 649q0 105 -37.5 141.5t-148.5 36.5q-87 0 -131 -19t-60 -67t-16 -143v-41h391q2 37 2 92zM758 1137q0 -13 -10 -22t-21 -9h-131q-10 0 -19.5 9.5t-9.5 21.5v137q0 13 9 22t20 9h131 q12 0 21.5 -8.5t9.5 -22.5v-137zM438 1137q0 -12 -8.5 -21.5t-19.5 -9.5h-133q-12 0 -20.5 9.5t-8.5 21.5v137q0 13 8 22t21 9h133q12 0 20 -9t8 -22v-137z"></glyph><glyph glyph-name="igrave" unicode="ì" d="M352 59q0 -35 -9 -47t-36 -12h-80q-47 0 -58 9.5t-11 49.5v838q0 35 9.5 45t43.5 10h96q45 0 45 -55v-838zM455 1169q0 -9 -9 -11.5t-48 -2.5h-59h-7v0q-24 0 -43 10q-12 9 -15.5 13t-19 24t-49.5 68t-38 53q-45 63 -68.5 95.5t-28.5 39.5q-14 17 -14 31q0 10 7.5 15 t29.5 6t86 1q58 0 70 -8q26 -22 190 -297q16 -27 16 -37z"></glyph><glyph glyph-name="iacute" unicode="í" d="M352 59q0 -35 -9 -47t-36 -12h-80q-47 0 -58 9.5t-11 49.5v838q0 35 9.5 45t43.5 10h96q45 0 45 -55v-838zM475 1489q0 -14 -14 -31q-40 -55 -96 -135q-105 -147 -123 -158q-19 -10 -43 -10v0h-6h-60q-28 0 -39 1t-14.5 3.5t-3.5 9.5q0 10 16 37q164 275 191 297 q8 8 67 8q65 0 87.5 -1t30 -6t7.5 -15z"></glyph><glyph glyph-name="icircumflex" unicode="î" d="M352 59q0 -35 -9 -47t-36 -12h-80q-47 0 -58 9.5t-11 49.5v838q0 35 9.5 45t43.5 10h96q45 0 45 -55v-838zM543 1116q0 -14 -107 -14q-29 0 -37 4q-10 5 -57 76q-18 27 -88 118q-60 -78 -88 -118q-45 -68 -60 -76q-8 -4 -37 -4q-104 0 -104 14q0 5 8 19l84 118 q94 131 113 144q12 10 84 10q71 0 84 -10q10 -7 48 -56.5t64 -87.5l84 -118q9 -16 9 -19z"></glyph><glyph glyph-name="idieresis" unicode="ï" d="M352 59q0 -35 -9 -47t-36 -12h-80q-47 0 -58 9.5t-11 49.5v838q0 35 9.5 45t43.5 10h96q45 0 45 -55v-838zM510 1137q0 -13 -10 -22t-21 -9h-131q-10 0 -19.5 9.5t-9.5 21.5v137q0 13 9 22t20 9h131q12 0 21.5 -8.5t9.5 -22.5v-137zM190 1137q0 -12 -8.5 -21.5 t-19.5 -9.5h-133q-12 0 -20.5 9.5t-8.5 21.5v137q0 13 8 22t21 9h133q12 0 20 -9t8 -22v-137z"></glyph><glyph glyph-name="ntilde" unicode="ñ" d="M924 59q0 -34 -9.5 -46.5t-35.5 -12.5h-72q-49 0 -60.5 9.5t-11.5 49.5v551q0 163 -20 189q-25 30 -92 30q-52 0 -97.5 -16t-88.5 -45.5t-101 -75.5v-633q0 -35 -9 -47t-36 -12h-72q-48 0 -60 9.5t-12 49.5v838q0 35 10 45t44 10h90q45 0 45 -55v-33q78 58 143 89.5 t168 31.5q80 0 136 -23t86 -60t42.5 -82.5t12.5 -98.5v-662zM858 1298q0 -12 -16 -49q-64 -135 -174 -135q-39 0 -72 8.5t-73 25t-60.5 23.5t-44.5 7q-26 0 -42.5 -10.5t-39.5 -39.5q-9 -13 -16 -17.5t-19 -4.5h-67q-16 0 -20.5 3t-4.5 11q0 17 25 60q69 133 172 133 q31 0 64 -8t74 -21.5t70.5 -23t47.5 -9.5q36 0 67 49q5 9 10 12t21 3h72q26 0 26 -17z"></glyph><glyph glyph-name="ograve" unicode="ò" d="M979 477q0 -138 -24.5 -225t-80.5 -154q-100 -125 -325 -125q-111 0 -193 31t-135 94q-54 66 -78 154.5t-24 224.5q0 94 10.5 162.5t32 120t59.5 98.5q105 125 328 125q224 0 325 -125q39 -48 62 -100.5t33 -119.5t10 -161zM788 477q0 185 -40 264q-26 51 -66 68.5 t-133 17.5t-132.5 -17t-66.5 -69q-41 -81 -41 -264t41 -264q25 -49 67 -66.5t132 -17.5t132 17.5t67 66.5q40 79 40 264zM643 1169q0 -9 -9 -11.5t-48 -2.5h-59h-7v0q-24 0 -43 10q-12 9 -15.5 13t-19 24t-49.5 68t-38 53q-45 63 -68.5 95.5t-28.5 39.5q-14 17 -14 31 q0 10 7.5 15t29.5 6t86 1q58 0 70 -8q26 -22 190 -297q16 -27 16 -37z"></glyph><glyph glyph-name="oacute" unicode="ó" d="M979 477q0 -138 -24.5 -225t-80.5 -154q-100 -125 -325 -125q-111 0 -193 31t-135 94q-54 66 -78 154.5t-24 224.5q0 94 10.5 162.5t32 120t59.5 98.5q105 125 328 125q224 0 325 -125q39 -48 62 -100.5t33 -119.5t10 -161zM788 477q0 185 -40 264q-26 51 -66 68.5 t-133 17.5t-132.5 -17t-66.5 -69q-41 -81 -41 -264t41 -264q25 -49 67 -66.5t132 -17.5t132 17.5t67 66.5q40 79 40 264zM850 1489q0 -14 -14 -31q-40 -55 -96 -135q-105 -147 -123 -158q-19 -10 -43 -10v0h-6h-60q-28 0 -39 1t-14.5 3.5t-3.5 9.5q0 10 16 37 q164 275 191 297q8 8 67 8q65 0 87.5 -1t30 -6t7.5 -15z"></glyph><glyph glyph-name="ocircumflex" unicode="ô" d="M979 477q0 -138 -24.5 -225t-80.5 -154q-100 -125 -325 -125q-111 0 -193 31t-135 94q-54 66 -78 154.5t-24 224.5q0 94 10.5 162.5t32 120t59.5 98.5q105 125 328 125q224 0 325 -125q39 -48 62 -100.5t33 -119.5t10 -161zM788 477q0 185 -40 264q-26 51 -66 68.5 t-133 17.5t-132.5 -17t-66.5 -69q-41 -81 -41 -264t41 -264q25 -49 67 -66.5t132 -17.5t132 17.5t67 66.5q40 79 40 264zM825 1116q0 -14 -107 -14q-29 0 -37 4q-10 5 -57 76q-18 27 -88 118q-60 -78 -88 -118q-45 -68 -60 -76q-8 -4 -37 -4q-104 0 -104 14q0 5 8 19l84 118 q94 131 113 144q12 10 84 10q71 0 84 -10q10 -7 48 -56.5t64 -87.5l84 -118q9 -16 9 -19z"></glyph><glyph glyph-name="otilde" unicode="õ" d="M979 477q0 -138 -24.5 -225t-80.5 -154q-100 -125 -325 -125q-111 0 -193 31t-135 94q-54 66 -78 154.5t-24 224.5q0 94 10.5 162.5t32 120t59.5 98.5q105 125 328 125q224 0 325 -125q39 -48 62 -100.5t33 -119.5t10 -161zM788 477q0 185 -40 264q-26 51 -66 68.5 t-133 17.5t-132.5 -17t-66.5 -69q-41 -81 -41 -264t41 -264q25 -49 67 -66.5t132 -17.5t132 17.5t67 66.5q40 79 40 264zM858 1298q0 -12 -16 -49q-64 -135 -174 -135q-39 0 -72 8.5t-73 25t-60.5 23.5t-44.5 7q-26 0 -42.5 -10.5t-39.5 -39.5q-9 -13 -16 -17.5t-19 -4.5 h-67q-16 0 -20.5 3t-4.5 11q0 17 25 60q69 133 172 133q31 0 64 -8t74 -21.5t70.5 -23t47.5 -9.5q36 0 67 49q5 9 10 12t21 3h72q26 0 26 -17z"></glyph><glyph glyph-name="odieresis" unicode="ö" d="M979 477q0 -138 -24.5 -225t-80.5 -154q-100 -125 -325 -125q-111 0 -193 31t-135 94q-54 66 -78 154.5t-24 224.5q0 94 10.5 162.5t32 120t59.5 98.5q105 125 328 125q224 0 325 -125q39 -48 62 -100.5t33 -119.5t10 -161zM788 477q0 185 -40 264q-26 51 -66 68.5 t-133 17.5t-132.5 -17t-66.5 -69q-41 -81 -41 -264t41 -264q25 -49 67 -66.5t132 -17.5t132 17.5t67 66.5q40 79 40 264zM809 1137q0 -13 -10 -22t-21 -9h-131q-10 0 -19.5 9.5t-9.5 21.5v137q0 13 9 22t20 9h131q12 0 21.5 -8.5t9.5 -22.5v-137zM489 1137q0 -12 -8.5 -21.5 t-19.5 -9.5h-133q-12 0 -20.5 9.5t-8.5 21.5v137q0 13 8 22t21 9h133q12 0 20 -9t8 -22v-137z"></glyph><glyph glyph-name="divide" unicode="÷" d="M645 760q0 -44 -28.5 -73.5t-69.5 -29.5q-40 0 -69 31t-29 72q0 43 27 72.5t69 29.5q20 0 37.5 -7.5t32.5 -22.5t22.5 -33.5t7.5 -38.5zM975 432h-825v117h825v-117zM645 221q0 -43 -28.5 -72.5t-69.5 -29.5q-39 0 -68.5 30.5t-29.5 71.5q0 44 27 73.5t69 29.5 q41 0 70.5 -31.5t29.5 -71.5z"></glyph><glyph glyph-name="oslash" unicode="ø" d="M971 913q0 -12 -8 -20l-74 -90q35 -57 51 -135t16 -191q0 -138 -24 -224.5t-80 -154.5q-54 -64 -130.5 -94.5t-184.5 -30.5q-165 0 -265 74l-49 -59q-12 -17 -22 -17t-23 11l-55 55q-4 8 -4 14q0 9 6 21l61 75q-35 61 -51 139t-16 191q0 94 10.5 162.5t32 120t59.5 98.5 q54 65 130.5 95t185.5 30q168 0 268 -78l65 80q9 8 19 8q8 0 20 -10l47 -43q15 -14 15 -27zM707 784q-22 23 -60 33t-110 10q-91 0 -131.5 -17t-67.5 -69q-41 -78 -41 -264q0 -55 4 -103t10 -77zM776 477q0 105 -12 172l-393 -481q43 -39 166 -39q90 0 131.5 17.5t66.5 66.5 q41 78 41 264z"></glyph><glyph glyph-name="ugrave" unicode="ù" d="M913 55q0 -36 -10 -45.5t-43 -9.5h-90q-45 0 -45 55v33q-52 -39 -89 -62t-94 -41t-126 -18q-154 0 -216.5 76.5t-62.5 187.5v662q0 34 9 46.5t36 12.5h74q48 0 59 -9.5t11 -49.5v-551q0 -163 20 -188q23 -31 92 -31q77 0 137 32t150 105v633q0 34 9 46.5t36 12.5h74 q48 0 58.5 -9t10.5 -50v-838zM668 1169q0 -9 -9 -11.5t-48 -2.5h-59h-7v0q-24 0 -43 10q-12 9 -15.5 13t-19 24t-49.5 68t-38 53q-45 63 -68.5 95.5t-28.5 39.5q-14 17 -14 31q0 10 7.5 15t29.5 6t86 1q58 0 70 -8q26 -22 190 -297q16 -27 16 -37z"></glyph><glyph glyph-name="uacute" unicode="ú" d="M913 55q0 -36 -10 -45.5t-43 -9.5h-90q-45 0 -45 55v33q-52 -39 -89 -62t-94 -41t-126 -18q-154 0 -216.5 76.5t-62.5 187.5v662q0 34 9 46.5t36 12.5h74q48 0 59 -9.5t11 -49.5v-551q0 -163 20 -188q23 -31 92 -31q77 0 137 32t150 105v633q0 34 9 46.5t36 12.5h74 q48 0 58.5 -9t10.5 -50v-838zM803 1489q0 -14 -14 -31q-40 -55 -96 -135q-105 -147 -123 -158q-19 -10 -43 -10v0h-6h-60q-28 0 -39 1t-14.5 3.5t-3.5 9.5q0 10 16 37q164 275 191 297q8 8 67 8q65 0 87.5 -1t30 -6t7.5 -15z"></glyph><glyph glyph-name="ucircumflex" unicode="û" d="M913 55q0 -36 -10 -45.5t-43 -9.5h-90q-45 0 -45 55v33q-52 -39 -89 -62t-94 -41t-126 -18q-154 0 -216.5 76.5t-62.5 187.5v662q0 34 9 46.5t36 12.5h74q48 0 59 -9.5t11 -49.5v-551q0 -163 20 -188q23 -31 92 -31q77 0 137 32t150 105v633q0 34 9 46.5t36 12.5h74 q48 0 58.5 -9t10.5 -50v-838zM796 1116q0 -14 -107 -14q-29 0 -37 4q-10 5 -57 76q-18 27 -88 118q-60 -78 -88 -118q-45 -68 -60 -76q-8 -4 -37 -4q-104 0 -104 14q0 5 8 19l84 118q94 131 113 144q12 10 84 10q71 0 84 -10q10 -7 48 -56.5t64 -87.5l84 -118q9 -16 9 -19z "></glyph><glyph glyph-name="udieresis" unicode="ü" d="M913 55q0 -36 -10 -45.5t-43 -9.5h-90q-45 0 -45 55v33q-52 -39 -89 -62t-94 -41t-126 -18q-154 0 -216.5 76.5t-62.5 187.5v662q0 34 9 46.5t36 12.5h74q48 0 59 -9.5t11 -49.5v-551q0 -163 20 -188q23 -31 92 -31q77 0 137 32t150 105v633q0 34 9 46.5t36 12.5h74 q48 0 58.5 -9t10.5 -50v-838zM775 1137q0 -13 -10 -22t-21 -9h-131q-10 0 -19.5 9.5t-9.5 21.5v137q0 13 9 22t20 9h131q12 0 21.5 -8.5t9.5 -22.5v-137zM455 1137q0 -12 -8.5 -21.5t-19.5 -9.5h-133q-12 0 -20.5 9.5t-8.5 21.5v137q0 13 8 22t21 9h133q12 0 20 -9t8 -22 v-137z"></glyph><glyph glyph-name="yacute" unicode="ý" d="M909 928q0 -2 -18 -58l-434 -1241q-9 -25 -21.5 -32t-46.5 -7h-102q-21 0 -27 4.5t-6 14.5q0 8 12 37l156 383l-340 882q-4 18 -4 21q0 20 37 20h90q45 0 59 -5.5t21 -28.5l219 -668l205 645q12 37 26 47t51 10h88q35 0 35 -24zM737 1489q0 -14 -14 -31q-40 -55 -96 -135 q-105 -147 -123 -158q-19 -10 -43 -10v0h-6h-60q-28 0 -39 1t-14.5 3.5t-3.5 9.5q0 10 16 37q164 275 191 297q8 8 67 8q65 0 87.5 -1t30 -6t7.5 -15z"></glyph><glyph glyph-name="thorn" unicode="þ" d="M969 496q0 -78 -5.5 -144t-17.5 -112t-31 -82q-46 -89 -139.5 -137t-218.5 -48q-106 0 -221 31v-360q0 -35 -9 -47.5t-36 -12.5h-72q-48 0 -60 9.5t-12 50.5v1669q0 35 10 45t44 10h90q45 0 45 -55v-451q99 57 177.5 89t160.5 32q67 0 115 -18.5t85 -65.5 q53 -62 74 -150.5t21 -252.5zM778 489q0 65 -6.5 136t-13.5 106q-11 47 -40 71.5t-75 24.5q-59 0 -149.5 -40t-157.5 -85v-538q112 -39 227 -39q62 0 105 18q110 48 110 346z"></glyph><glyph glyph-name="ydieresis" unicode="ÿ" d="M909 928q0 -2 -18 -58l-434 -1241q-9 -25 -21.5 -32t-46.5 -7h-102q-21 0 -27 4.5t-6 14.5q0 8 12 37l156 383l-340 882q-4 18 -4 21q0 20 37 20h90q45 0 59 -5.5t21 -28.5l219 -668l205 645q12 37 26 47t51 10h88q35 0 35 -24zM773 1137q0 -13 -10 -22t-21 -9h-131 q-10 0 -19.5 9.5t-9.5 21.5v137q0 13 9 22t20 9h131q12 0 21.5 -8.5t9.5 -22.5v-137zM453 1137q0 -12 -8.5 -21.5t-19.5 -9.5h-133q-12 0 -20.5 9.5t-8.5 21.5v137q0 13 8 22t21 9h133q12 0 20 -9t8 -22v-137z"></glyph><glyph glyph-name="Cacute" unicode="Ć" d="M1001 23q0 -21 -15 -28.5t-58 -10.5q-135 -11 -228 -11q-137 0 -235 25t-161 85.5t-96.5 148t-47 194.5t-13.5 242q0 228 33.5 370t100.5 216.5t166.5 101t252.5 26.5q85 0 228 -10q43 -3 58 -10t15 -29v-71q0 -41 -7.5 -54.5t-35.5 -13.5q-33 0 -53.5 2.5t-55.5 5 t-110 2.5q-67 0 -132.5 -7.5t-102.5 -25.5q-62 -29 -94 -95t-43 -164t-11 -248q0 -106 7.5 -188t30.5 -149.5t67.5 -109t113.5 -55.5q51 -10 164 -10q79 0 130 5t89 5q28 0 35.5 -13.5t7.5 -54.5v-71zM849 1852q0 -14 -14 -31q-40 -55 -96 -135q-105 -147 -123 -158 q-19 -10 -43 -10v0h-6h-60q-28 0 -39 1t-14.5 3.5t-3.5 9.5q0 10 16 37q164 275 191 297q8 8 67 8q65 0 87.5 -1t30 -6t7.5 -15z"></glyph><glyph glyph-name="cacute" unicode="ć" d="M795 25q0 -24 -13.5 -30.5t-68.5 -12.5q-72 -9 -168 -9q-133 0 -214.5 22t-127 75.5t-65 149t-19.5 257.5q0 161 19.5 257.5t65 150.5t127 76t214.5 22q68 0 168 -10q58 -6 70 -11.5t12 -29.5q0 -61 -9 -103q-5 -30 -28 -30q-12 0 -117 12t-158 12q-106 0 -139 -53 q-31 -49 -31 -293q0 -67 1.5 -121t4.5 -84q4 -50 21 -81.5t51 -44.5t92 -13q53 0 155 12.5t120 12.5q12 0 20 -8q6 -8 11.5 -44.5t5.5 -80.5zM749 1489q0 -14 -14 -31q-40 -55 -96 -135q-105 -147 -123 -158q-19 -10 -43 -10v0h-6h-60q-28 0 -39 1t-14.5 3.5t-3.5 9.5 q0 10 16 37q164 275 191 297q8 8 67 8q65 0 87.5 -1t30 -6t7.5 -15z"></glyph><glyph glyph-name="Ccaron" unicode="Č" d="M1001 23q0 -21 -15 -28.5t-58 -10.5q-135 -11 -228 -11q-137 0 -235 25t-161 85.5t-96.5 148t-47 194.5t-13.5 242q0 228 33.5 370t100.5 216.5t166.5 101t252.5 26.5q85 0 228 -10q43 -3 58 -10t15 -29v-71q0 -41 -7.5 -54.5t-35.5 -13.5q-33 0 -53.5 2.5t-55.5 5 t-110 2.5q-67 0 -132.5 -7.5t-102.5 -25.5q-62 -29 -94 -95t-43 -164t-11 -248q0 -106 7.5 -188t30.5 -149.5t67.5 -109t113.5 -55.5q51 -10 164 -10q79 0 130 5t89 5q28 0 35.5 -13.5t7.5 -54.5v-71zM878 1809q0 -5 -9 -19l-84 -119q-89 -126 -112 -143q-8 -6 -21 -8 t-63 -2q-51 0 -63.5 2t-20.5 8q-17 10 -113 143l-84 119q-8 12 -8 19q0 14 104 14q29 0 37 -4q15 -8 60 -76q17 -25 88 -119q77 101 88 119q47 71 57 76q8 4 37 4q107 0 107 -14z"></glyph><glyph glyph-name="ccaron" unicode="č" d="M795 25q0 -24 -13.5 -30.5t-68.5 -12.5q-72 -9 -168 -9q-133 0 -214.5 22t-127 75.5t-65 149t-19.5 257.5q0 161 19.5 257.5t65 150.5t127 76t214.5 22q68 0 168 -10q58 -6 70 -11.5t12 -29.5q0 -61 -9 -103q-5 -30 -28 -30q-12 0 -117 12t-158 12q-106 0 -139 -53 q-31 -49 -31 -293q0 -67 1.5 -121t4.5 -84q4 -50 21 -81.5t51 -44.5t92 -13q53 0 155 12.5t120 12.5q12 0 20 -8q6 -8 11.5 -44.5t5.5 -80.5zM778 1401q0 -5 -9 -19l-84 -119q-89 -126 -112 -143q-8 -6 -21 -8t-63 -2q-51 0 -63.5 2t-20.5 8q-17 10 -113 143l-84 119 q-8 12 -8 19q0 14 104 14q29 0 37 -4q15 -8 60 -76q17 -25 88 -119q77 101 88 119q47 71 57 76q8 4 37 4q107 0 107 -14z"></glyph><glyph glyph-name="dcroat" unicode="đ" d="M1051 1153q0 -40 -13 -51.5t-45 -11.5h-61v-1031q0 -35 -9 -47t-36 -12h-74q-47 0 -58.5 9.5t-11.5 49.5v7q-87 -51 -155.5 -73t-136.5 -22q-105 0 -180.5 54.5t-113.5 161t-38 257.5q0 535 397 535q58 0 122.5 -8t104.5 -17v136h-256q-34 0 -43.5 10.5t-9.5 44.5v26 q0 48 53 48h256v94q0 35 10 45t44 10h90q45 0 45 -55v-94h61q58 0 58 -48v-18zM743 238v548q-130 37 -233 37q-64 0 -100 -22q-101 -61 -101 -379q0 -163 45 -232q22 -29 59.5 -48t78.5 -19q55 0 124.5 31t126.5 84z"></glyph><glyph glyph-name="dotlessi" unicode="ı" d="M352 59q0 -35 -9 -47t-36 -12h-80q-47 0 -58 9.5t-11 49.5v838q0 35 9.5 45t43.5 10h96q45 0 45 -55v-838z"></glyph><glyph glyph-name="Lslash" unicode="Ł" d="M1090 53q0 -33 -12 -43t-40 -10h-571q-39 0 -50 11t-11 48v480l-156 -166q-8 -8 -21 -8h-8q-10 3 -12 8l-64 65q-8 8 -8 23v8q5 11 8 12l261 279v555q0 36 12.5 44.5t48.5 8.5h88q32 0 41.5 -11.5t9.5 -41.5v-342l197 211q10 10 22 10q6 0 9 -2q6 0 12 -6l61 -68 q8 -8 8 -24v-7l-6 -12l-303 -323v-582q78 2 163 3.5t120 2t149 0.5h2q33 0 41.5 -14.5t8.5 -50.5v-58z"></glyph><glyph glyph-name="lslash" unicode="ł" d="M698 1042v-8q0 -6 -6 -12l-260 -311v-652q0 -35 -9 -47t-36 -12h-72q-48 0 -59.5 9.5t-11.5 49.5v428l-99 -116q-5 -11 -22 -11h-6l-13 7l-65 63q-10 10 -10 25v6q4 8 8 12l207 248v592q0 35 9.5 45t43.5 10h90q45 0 45 -55v-367l150 178q7 11 22 11h6q3 -1 15 -7l65 -63 q8 -8 8 -23z"></glyph><glyph glyph-name="OE" unicode="Œ" d="M1634 53q0 -34 -12.5 -43.5t-38.5 -9.5h-883q-137 0 -235 25q-130 33 -200 122t-94 217.5t-24 303.5q0 228 33 367t100 211t165.5 97t254.5 25h883q28 0 39.5 -9.5t11.5 -43.5v-58q0 -38 -8.5 -51.5t-40.5 -13.5h-2q-143 0 -257.5 2t-233.5 6v-412q216 9 446 9h2 q33 0 41 -14t8 -52v-29q0 -38 -8.5 -51.5t-40.5 -13.5h-2q-136 0 -233 2t-213 6v-477q90 3 240 5.5t251 2.5h2q33 0 41 -13.5t8 -51.5v-58zM891 184v1000q-81 6 -152 6q-67 0 -132.5 -7.5t-102.5 -25.5q-66 -32 -98 -101t-41 -160.5t-9 -231.5q0 -107 8 -187t31.5 -140.5 t66.5 -97t113 -51.5q58 -10 111 -10h53q55 0 72.5 0.5t39.5 2t40 3.5z"></glyph><glyph glyph-name="oe" unicode="œ" d="M1538 508q0 -63 -7.5 -78.5t-41.5 -15.5h-526q0 -112 11 -174.5t58 -85.5q53 -29 150 -29q69 0 128 9.5t118.5 23.5t70.5 14q18 0 23 -61q2 -15 2 -50q0 -22 -3 -32.5t-11.5 -16t-28.5 -10.5q-159 -29 -301 -29q-106 0 -187 27t-125 74q-10 10 -16 22 q-105 -123 -326 -123q-201 0 -305 125q-54 66 -78 154.5t-24 224.5q0 94 10.5 162.5t32 120t59.5 98.5q104 125 305 125q218 0 326 -123q83 123 317 123q240 0 314 -137q35 -63 45 -143t10 -195zM1356 649q0 104 -38 141t-147 37q-87 0 -131 -19t-60.5 -66.5t-16.5 -143.5 v-41h391q2 37 2 92zM778 473q0 190 -41 268q-26 52 -65.5 69t-134.5 17q-91 0 -131.5 -17t-67.5 -69q-41 -78 -41 -264t41 -264q27 -50 69 -67t130 -17q93 0 134.5 17.5t65.5 66.5q41 78 41 260z"></glyph><glyph glyph-name="Scaron" unicode="Š" d="M909 408q0 -92 -6.5 -166.5t-28.5 -116.5q-44 -90 -145 -116.5t-244 -26.5q-114 0 -295 16q-42 3 -56.5 10.5t-14.5 28.5v72q0 38 6.5 52.5t34.5 14.5q37 0 119 -8t237 -8q79 0 120.5 10.5t60 48t18.5 115.5q0 87 -4.5 123t-24 58.5t-65.5 41.5q-207 91 -254 113 q-109 51 -155 87t-62.5 96t-16.5 181q0 67 4 111.5t21 88.5t53 75q53 49 127.5 61t220.5 12h4h2h17q82 0 229 -10q42 -3 57 -10t15 -29v-71q0 -41 -6.5 -54.5t-34.5 -13.5q-34 0 -54.5 2.5t-56 5t-110.5 2.5q-36 1 -68 1.5t-78 0.5q-70 0 -101 -20t-38.5 -56.5t-7.5 -115.5 q0 -51 5.5 -77.5t24 -44t62.5 -38.5q42 -18 91 -39.5t77 -34.5q116 -51 170.5 -79.5t88.5 -64.5t48 -89t14 -139zM809 1809q0 -5 -9 -19l-84 -119q-89 -126 -112 -143q-8 -6 -21 -8t-63 -2q-51 0 -63.5 2t-20.5 8q-17 10 -113 143l-84 119q-8 12 -8 19q0 14 104 14 q29 0 37 -4q15 -8 60 -76q17 -25 88 -119q77 101 88 119q47 71 57 76q8 4 37 4q107 0 107 -14z"></glyph><glyph glyph-name="scaron" unicode="š" d="M809 268q0 -121 -29 -181t-101.5 -83.5t-215.5 -23.5q-175 0 -287 14q-17 3 -21.5 14t-4.5 49q0 23 2 74q0 17 4 22t16 5q-4 0 102 -12.5t215 -12.5q88 0 114 22t26 91q0 74 -17 92q-15 15 -57 30.5t-166 51.5q-163 48 -209 94q-53 53 -53 176q0 139 61 211 q41 45 112 59.5t253 14.5q100 0 149 -4q30 -2 44.5 -7t19 -18.5t4.5 -44.5v-10v0q0 -17 -2 -53q-2 -20 -9 -27.5t-28 -7.5q-18 0 -64 5t-93.5 9t-110.5 4q-76 0 -105.5 -7t-39 -28.5t-9.5 -78.5q0 -39 4 -54q5 -17 19 -27t46.5 -22.5t125.5 -42.5l133 -43q103 -32 137.5 -82 t34.5 -168zM761 1393q0 -5 -9 -19l-84 -119q-89 -126 -112 -143q-8 -6 -21 -8t-63 -2q-51 0 -63.5 2t-20.5 8q-17 10 -113 143l-84 119q-8 12 -8 19q0 14 104 14q29 0 37 -4q15 -8 60 -76q17 -25 88 -119q77 101 88 119q47 71 57 76q8 4 37 4q107 0 107 -14z"></glyph><glyph glyph-name="Ydieresis" unicode="Ÿ" d="M1114 1329q0 -13 -12 -39l-406 -758v-473q0 -35 -11.5 -47t-39.5 -12h-86q-40 0 -51.5 11t-11.5 48v455l-414 776q-12 23 -12 45q0 33 43 33h108q32 0 45 -9.5t25 -33.5l305 -588l315 588q14 25 26 34t44 9h88q45 0 45 -33v-6zM852 1553q0 -13 -10 -22t-21 -9h-131 q-10 0 -19.5 9.5t-9.5 21.5v137q0 13 9 22t20 9h131q12 0 21.5 -8.5t9.5 -22.5v-137zM532 1553q0 -12 -8.5 -21.5t-19.5 -9.5h-133q-12 0 -20.5 9.5t-8.5 21.5v137q0 13 8 22t21 9h133q12 0 20 -9t8 -22v-137z"></glyph><glyph glyph-name="Zcaron" unicode="Ž" d="M1049 1341q0 -19 -15 -47l-659 -1140q193 11 349 16.5t257 5.5q34 0 42.5 -13.5t8.5 -51.5v-58q0 -34 -12.5 -43.5t-38.5 -9.5h-819q-43 0 -43 45q0 37 28 86l617 1071q-293 -10 -551 -10q-33 0 -42 14.5t-9 50.5v58q0 33 11.5 43t39.5 10h803q29 0 33 -27zM918 1813 q0 -5 -9 -19l-84 -119q-89 -126 -112 -143q-8 -6 -21 -8t-63 -2q-51 0 -63.5 2t-20.5 8q-17 10 -113 143l-84 119q-8 12 -8 19q0 14 104 14q29 0 37 -4q15 -8 60 -76q17 -25 88 -119q77 101 88 119q47 71 57 76q8 4 37 4q107 0 107 -14z"></glyph><glyph glyph-name="zcaron" unicode="ž" d="M829 53q0 -34 -12.5 -43.5t-38.5 -9.5h-628q-41 0 -41 41v37q0 36 24 72l467 665q-87 -6 -155.5 -11t-134 -9t-124.5 -4q-33 0 -42 14.5t-9 50.5v43q0 33 11.5 43t39.5 10h596q19 0 25 -6t6 -26v-64q0 -28 -14 -51l-471 -666q282 23 450 23q33 0 42 -14t9 -52v-43z M873 1393q0 -5 -9 -19l-84 -119q-89 -126 -112 -143q-8 -6 -21 -8t-63 -2q-51 0 -63.5 2t-20.5 8q-17 10 -113 143l-84 119q-8 12 -8 19q0 14 104 14q29 0 37 -4q15 -8 60 -76q17 -25 88 -119q77 101 88 119q47 71 57 76q8 4 37 4q107 0 107 -14z"></glyph><glyph glyph-name="florin" unicode="ƒ" d="M958 1270q0 -45 -3.5 -56.5t-20.5 -11.5q4 0 -52.5 9.5t-84.5 9.5q-55 0 -84 -19q-31 -17 -50.5 -78t-39.5 -172h147q35 0 46 -9.5t11 -37.5v-28q0 -50 -8.5 -62t-48.5 -12h-176l-123 -692q-19 -108 -32.5 -168.5t-24.5 -87.5t-29 -56q-33 -55 -93 -85.5t-142 -30.5 q-34 0 -64 6q-18 3 -22.5 12t-4.5 35v61q0 23 9 31t28 8h27q45 0 72 20t44 68.5t33 141.5l129 737h-88q-34 0 -43.5 10.5t-9.5 44.5v47q0 47 53 47h117q9 44 18.5 91t19 87.5t19.5 73t23 58.5q32 62 100 93t166 31q22 0 66.5 -5t60.5 -7q35 -4 45 -13t10 -34v-57z"></glyph><glyph glyph-name="circumflex" unicode="ˆ" d="M578 1116q0 -14 -107 -14q-29 0 -37 4q-10 5 -57 76q-18 27 -88 118q-60 -78 -88 -118q-45 -68 -60 -76q-8 -4 -37 -4q-104 0 -104 14q0 5 8 19l84 118q94 131 113 144q12 10 84 10q71 0 84 -10q10 -7 48 -56.5t64 -87.5l84 -118q9 -16 9 -19z"></glyph><glyph glyph-name="caron" unicode="ˇ" d="M578 1393q0 -5 -9 -19l-84 -119q-89 -126 -112 -143q-8 -6 -21 -8t-63 -2q-51 0 -63.5 2t-20.5 8q-17 10 -113 143l-84 119q-8 12 -8 19q0 14 104 14q29 0 37 -4q15 -8 60 -76q17 -25 88 -119q77 101 88 119q47 71 57 76q8 4 37 4q107 0 107 -14z"></glyph><glyph glyph-name="macron" unicode="ˉ" d="M532 1180q0 -50 -8.5 -62t-48.5 -12h-422q-34 0 -43.5 10.5t-9.5 44.5v31q0 47 53 47h422q35 0 46 -9.5t11 -37.5v-12z"></glyph><glyph glyph-name="breve" unicode="˘" d="M600 1370q0 -81 -39.5 -146.5t-109 -103t-150.5 -37.5q-128 0 -214.5 81.5t-86.5 205.5q0 27 14.5 35t65.5 8q41 0 41 -22q0 -211 180 -211t180 211q0 14 7.5 18t31.5 4q52 0 66 -8t14 -35z"></glyph><glyph glyph-name="dotaccent" unicode="˙" d="M195 1167q0 -34 -9.5 -46.5t-35.5 -12.5h-78q-49 0 -60.5 9.5t-11.5 49.5v74q0 35 9.5 45t43.5 10h97q45 0 45 -55v-74z"></glyph><glyph glyph-name="ring" unicode="˚" d="M303 1212q0 -65 -43.5 -111t-107.5 -46q-62 0 -107 47.5t-45 109.5q0 66 44.5 112t107.5 46q40 0 75.5 -21t55.5 -57.5t20 -79.5zM229 1212q0 34 -22 58t-55 24t-55.5 -24.5t-22.5 -57.5t23 -56t55 -23q31 0 54 24t23 55z"></glyph><glyph glyph-name="tilde" unicode="˜" d="M649 1298q0 -12 -16 -49q-64 -135 -174 -135q-39 0 -72 8.5t-73 25t-60.5 23.5t-44.5 7q-26 0 -42.5 -10.5t-39.5 -39.5q-9 -13 -16 -17.5t-19 -4.5h-67q-16 0 -20.5 3t-4.5 11q0 17 25 60q69 133 172 133q31 0 64 -8t74 -21.5t70.5 -23t47.5 -9.5q36 0 67 49q5 9 10 12 t21 3h72q26 0 26 -17z"></glyph><glyph glyph-name="uniF006" unicode="π" d="M505 916v-916h-180v916h-280v146h1324v-146h-242v-916h-180v916h-442z"></glyph><glyph glyph-name="uniF006" unicode="" d="M505 916v-916h-180v916h-280v146h1324v-146h-242v-916h-180v916h-442z"></glyph><glyph glyph-name="endash" unicode="–" d="M1004 477q0 -50 -9 -62t-49 -12h-872q-34 0 -44 11.5t-10 44.5v59q0 47 54 47h872q35 0 46.5 -9.5t11.5 -37.5v-41z"></glyph><glyph glyph-name="emdash" unicode="—" d="M1987 477q0 -50 -9 -62t-49 -12h-1855q-34 0 -44 11.5t-10 44.5v59q0 47 54 47h1855q35 0 46.5 -9.5t11.5 -37.5v-41z"></glyph><glyph glyph-name="quoteleft" unicode="‘" d="M379 1075q0 -16 -41.5 -40.5t-61.5 -24.5q-13 0 -22.5 7.5t-24.5 35.5q-4 9 -26.5 54l-44 88t-38 76.5t-42.5 88.5q-8 16 -8 31q0 18 13.5 26t33.5 8h76q24 0 36.5 -13t26.5 -46l104 -227q19 -40 19 -64z"></glyph><glyph glyph-name="quoteright" unicode="’" d="M379 1391q0 -15 -8 -31q-29 -65 -152 -307q-21 -43 -47 -43q-21 0 -61.5 24.5t-40.5 40.5q0 21 18 64l105 227q14 33 26 46t37 13h76q20 0 33.5 -8t13.5 -26z"></glyph><glyph glyph-name="quotesinglbase" unicode="‚" d="M379 145q0 -14 -8 -30q-9 -19 -40.5 -85t-63.5 -128.5t-48 -94.5q-21 -43 -47 -43q-22 0 -62 24t-40 42q0 21 18 64l105 227q14 33 26 46t37 13h76q47 0 47 -35z"></glyph><glyph glyph-name="quotedblleft" unicode="“" d="M676 1075q0 -16 -41.5 -40.5t-61.5 -24.5q-13 0 -22.5 7.5t-24.5 35.5q-21 44 -40.5 83t-51.5 102t-59 122q-10 20 -10 31q0 17 14 25.5t33 8.5h77q25 0 37.5 -13t26.5 -46l102 -227q21 -44 21 -64zM379 1075q0 -16 -41.5 -40.5t-61.5 -24.5q-13 0 -22.5 7.5t-24.5 35.5 q-4 9 -26.5 54l-44 88t-38 76.5t-42.5 88.5q-8 16 -8 31q0 18 13.5 26t33.5 8h76q24 0 36.5 -13t26.5 -46l104 -227q19 -40 19 -64z"></glyph><glyph glyph-name="quotedblright" unicode="”" d="M676 1391q0 -15 -8 -31q-19 -44 -69 -141.5t-85 -165.5q-14 -27 -23.5 -35t-23.5 -8q-21 0 -61.5 24.5t-40.5 40.5q0 17 20 64l104 227q16 34 27.5 46.5t34.5 12.5h78q19 0 33 -8.5t14 -25.5zM379 1391q0 -15 -8 -31q-29 -65 -152 -307q-21 -43 -47 -43q-21 0 -61.5 24.5 t-40.5 40.5q0 21 18 64l105 227q14 33 26 46t37 13h76q20 0 33.5 -8t13.5 -26z"></glyph><glyph glyph-name="quotedblbase" unicode="„" d="M676 145q0 -14 -8 -30q-19 -42 -47 -97.5t-54 -106t-53 -104.5q-21 -43 -47 -43q-22 0 -62 24t-40 42q0 16 20 64l104 227q16 34 27.5 46.5t34.5 12.5h78q19 0 33 -9.5t14 -25.5zM379 145q0 -14 -8 -30q-9 -19 -40.5 -85t-63.5 -128.5t-48 -94.5q-21 -43 -47 -43 q-22 0 -62 24t-40 42q0 21 18 64l105 227q14 33 26 46t37 13h76q47 0 47 -35z"></glyph><glyph glyph-name="dagger" unicode="†" d="M909 907q0 -50 -8.5 -61.5t-48.5 -11.5h-254v-775q0 -35 -9 -47t-36 -12h-74q-47 0 -58 9.5t-11 49.5v775h-258q-34 0 -44 10.5t-10 44.5v47q0 47 54 47h258v330q0 35 9.5 45t43.5 10h90q45 0 45 -55v-330h254q35 0 46 -9.5t11 -37.5v-29z"></glyph><glyph glyph-name="daggerdbl" unicode="‡" d="M909 459q0 -50 -8.5 -62t-48.5 -12h-254v-326q0 -35 -9 -47t-36 -12h-74q-47 0 -58 9.5t-11 49.5v326h-258q-34 0 -44 10.5t-10 44.5v47q0 48 54 48h258v299h-258q-34 0 -44 10.5t-10 44.5v47q0 47 54 47h258v330q0 35 9.5 45t43.5 10h90q45 0 45 -55v-330h254 q35 0 46 -9.5t11 -37.5v-29q0 -50 -8.5 -61.5t-48.5 -11.5h-254v-299h254q34 0 45.5 -9.5t11.5 -38.5v-28z"></glyph><glyph glyph-name="bullet" unicode="•" d="M674 643q0 -79 -38.5 -146.5t-103.5 -108t-141 -40.5q-118 0 -200 85t-82 210q0 82 37 149.5t102 106.5t143 39t143 -39.5t102.5 -108t37.5 -147.5z"></glyph><glyph glyph-name="ellipsis" unicode="…" d="M1452 86q0 -15 -10 -27l-111 -110q-10 -10 -24 -10q-15 0 -25 10l-111 110q-10 12 -10 27t10 27l111 110q10 10 25 10q14 0 24 -10l111 -110q10 -12 10 -27zM922 86q0 -16 -11 -27l-110 -110q-10 -10 -25 -10q-16 0 -26 10l-111 110q-10 12 -10 27t10 27l111 110 q10 10 24 10q17 0 27 -10l110 -110q11 -11 11 -27zM391 86q0 -15 -10 -27l-111 -110q-10 -10 -24 -10q-17 0 -27 10l-110 110q-11 11 -11 27t11 27l110 110q10 10 25 10q16 0 26 -10l111 -110q10 -12 10 -27z"></glyph><glyph glyph-name="perthousand" unicode="‰" d="M2071 291q0 -163 -74 -240.5t-228 -77.5q-282 0 -282 316q0 315 285 315q151 0 225 -77.5t74 -235.5zM1921 287q0 100 -25 143q-13 25 -37 34t-81 9q-56 0 -80.5 -9t-36.5 -34q-25 -42 -25 -141t25 -144q13 -23 37.5 -32t81.5 -9q55 0 78 9t38 32q25 43 25 142zM721 1081 q0 -163 -73.5 -240t-227.5 -77q-283 0 -283 315q0 316 285 316q299 0 299 -314zM571 1077q0 96 -26 146q-13 24 -36 32.5t-81 8.5q-56 0 -79 -8.5t-38 -32.5q-24 -43 -24 -144q0 -100 24 -141q15 -26 38.5 -34.5t80.5 -8.5q53 0 77 9t40 34q24 50 24 139zM1196 1391 q0 -7 -4 -15l-741 -1442q-8 -16 -25 -16q-6 0 -14 4l-56 31q-14 6 -14 27v0q0 10 2 14l741 1442q11 16 27 16q4 0 12 -4l56 -31q16 -6 16 -26zM1389 291q0 -163 -72.5 -240.5t-226.5 -77.5q-142 0 -212.5 79.5t-70.5 236.5q0 315 285 315q150 0 223.5 -77t73.5 -236z M1239 287q0 100 -25 143q-13 25 -36.5 34t-81.5 9q-56 0 -80.5 -9t-36.5 -34q-23 -39 -23 -141t23 -144q13 -23 37.5 -32t81.5 -9t80 8.5t36 32.5q25 43 25 142z"></glyph><glyph glyph-name="guilsinglleft" unicode="‹" d="M457 131q0 -20 -101 -20q-34 0 -46.5 5.5t-24.5 24.5q-27 44 -84 136t-85 141t-28 59q0 11 34.5 71t85 140.5t77.5 124.5q11 20 24 25.5t47 5.5q101 0 101 -21q0 -9 -6 -18l-181 -328l181 -327q6 -10 6 -19z"></glyph><glyph glyph-name="guilsinglright" unicode="›" d="M496 477q0 -15 -63.5 -120t-133.5 -216q-12 -19 -24 -24.5t-48 -5.5q-100 0 -100 20q0 3 1.5 7l4.5 12l182 327l-182 328q-2 6 -4 10.5t-2 7.5q0 21 100 21q36 0 48.5 -5.5t23.5 -25.5q27 -42 53.5 -84t66.5 -107.5t58.5 -99.5t18.5 -45z"></glyph><glyph glyph-name="uni2044" unicode="⁄" d="M903 1391q0 -11 -2 -15l-741 -1442q-10 -16 -27 -16q-2 0 -14 4l-53 31q-17 6 -17 27q0 6 4 14l740 1442q10 16 26 16q5 0 15 -4l55 -31q14 -7 14 -26z"></glyph><glyph glyph-name="Euro" unicode="€" d="M997 25q0 -22 -14 -29t-53 -10q-147 -11 -213 -11q-136 0 -229.5 28t-153 90.5t-91 163t-40.5 247.5h-105q-25 0 -35 6t-10 20q0 5 4 29l4 25q10 47 64 47h74v43v67h-101q-25 0 -36 6t-11 21q0 3 4 29l6 24q12 47 64 47h80q13 164 51.5 269t100 159.5t148.5 75.5t212 21 q87 0 213 -11q39 -3 53 -10t14 -29v-61q0 -40 -6 -54t-33 -14q-32 0 -61 3.5t-51 5.5t-92 2q-139 0 -212.5 -31t-104 -106t-38.5 -220h490q30 0 39.5 -5.5t9.5 -22.5q0 -11 -2 -19l-6 -26q-8 -35 -18.5 -44.5t-49.5 -9.5h-467v-71v-39h449q29 0 40 -5.5t11 -23.5 q0 -2 -4 -18l-4 -27q-3 -22 -9.5 -33.5t-19.5 -15.5t-41 -4h-418q9 -152 42.5 -228t105.5 -104.5t207 -28.5q65 1 109 1.5t95 0.5q27 0 33 -13.5t6 -53.5v-53z"></glyph><glyph glyph-name="trademark" unicode="™" d="M1638 586q0 -23 -11 -30t-36 -7h-55q-15 0 -23 4t-12 13t-6 26l-37 545q-8 -22 -11 -29.5t-9 -24.5q-22 -56 -78 -204t-74 -193q-10 -25 -20.5 -34t-34.5 -9h-43q-26 0 -36 8.5t-22 34.5q-87 225 -151 397q-9 29 -18 54l-37 -545q-2 -24 -11 -33.5t-30 -9.5h-56 q-24 0 -36.5 7.5t-12.5 29.5v8l66 735q3 25 13.5 32t35.5 7h72q40 0 51 -31q54 -131 192 -508q54 145 117.5 311t75.5 197q7 17 17.5 24t33.5 7h74q24 0 34 -7t13 -32l65 -735v-8zM731 1294q0 -25 -7 -36t-32 -11h-2h-40.5t-84.5 0.5t-80 1.5v-655q0 -45 -41 -45h-53 q-29 0 -39 8.5t-10 36.5v655q-19 -1 -78.5 -1.5t-84 -0.5h-40.5h-2q-25 0 -32 12t-7 35v33q0 41 41 41h551q41 0 41 -41v-33z"></glyph><glyph glyph-name="uni2126" unicode="Ω" d="M496 160q-108 67 -165 130q-87 96 -134 225.5t-47 286.5q0 196 79.5 360.5t231 252.5t347.5 88q336 0 516 -254q131 -186 131 -448q0 -168 -54 -297.5t-141 -222.5q-53 -58 -149 -121l364 6v-166h-575v177q80 40 124 78q72 61 122 145t75.5 179t25.5 198 q0 138 -49.5 277.5t-150 212.5t-243.5 73q-191 0 -296 -120q-146 -169 -146 -440q0 -217 91 -372.5t251 -227.5v-180h-577v168z"></glyph><glyph glyph-name="onethird" unicode="⅓" d="M414 735q0 -23 -11.5 -37t-35.5 -14h-37q-29 0 -44.5 9.5t-15.5 41.5v516q-5 -2 -14.5 -6.5t-21 -9t-21.5 -7.5t-14 -3q-14 0 -22 7.5t-11.5 19t-4.5 24t-1 22.5q0 19 9.5 28t25.5 15q21 9 41.5 18.5t41.5 17.5t43 13t46 5q21 0 34 -13t13 -34v-613zM1106 1391 q0 -3 -19.5 -43t-52.5 -106t-78 -153.5t-96 -186.5t-105.5 -205t-107 -207.5t-101 -195t-87 -168t-64.5 -125t-35 -67.5q-6 -16 -24 -16q-7 0 -17 4.5t-19.5 10t-18.5 11.5t-15 9q-16 10 -16 27q0 3 19.5 42.5t52.5 105.5t78 154t96 187t105.5 204.5t107 207t100.5 195 t86.5 168t64.5 125t35 67.5q10 16 27 16q4 0 14 -4.5t20.5 -10.5t20 -12t13.5 -8q16 -10 16 -26zM1358 215q0 -120 -61.5 -174.5t-178.5 -54.5q-11 0 -32.5 1.5t-47.5 5t-53.5 9.5t-50 14t-37.5 18.5t-16 24.5v9q0 2 1 3t1 3q4 9 7 22.5t7.5 26.5t12.5 22t22 9q5 0 9 -1 t9 -3q42 -16 84.5 -26.5t87.5 -10.5q28 0 45.5 6t27.5 18t13.5 31t3.5 45q0 51 -23 67t-69 19q-32 2 -64.5 2h-64.5q-19 0 -27.5 8t-11 20t-1.5 27t1 29q0 19 12 27t29.5 10.5t36 1t31.5 -1.5q34 0 58.5 2.5t39.5 13t22 31t7 57.5q0 41 -23 56.5t-71 15.5q-23 0 -45 -2.5 t-45 -5.5q-11 -2 -23 -5t-23 -3q-14 0 -22 10.5t-12 25.5t-5 31t-1 27t4 17.5t12 13.5q6 4 28 7.5t47.5 6t48.5 3.5t32 1q51 0 94.5 -8t75.5 -29.5t50.5 -58.5t18.5 -94q0 -45 -11.5 -82t-45.5 -68q52 -28 69 -71t17 -99z"></glyph><glyph glyph-name="twothirds" unicode="⅔" d="M1165 1391q0 -3 -19.5 -43t-52.5 -106t-78 -153.5t-96 -186.5t-105.5 -205t-107 -207.5t-100.5 -195t-86.5 -168t-64.5 -125t-35 -67.5q-6 -16 -25 -16q-7 0 -16.5 4.5t-19.5 10t-19 11.5t-14 9q-17 9 -17 27q0 3 19.5 42.5t52.5 105.5t78 154t96 187t105.5 204.5 t107 207t101 195t87 168t64.5 125t35 67.5q10 16 26 16q5 0 15 -4.5t20.5 -10.5t19.5 -12t13 -8q16 -10 16 -26zM1358 215q0 -120 -61.5 -174.5t-178.5 -54.5q-11 0 -32.5 1.5t-47.5 5t-53.5 9.5t-50 14t-37.5 18.5t-16 24.5v9q0 2 1 3t1 3q4 9 7 22.5t7.5 26.5t12.5 22 t22 9q5 0 9 -1t9 -3q42 -16 84.5 -26.5t87.5 -10.5q28 0 45.5 6t27.5 18t13.5 31t3.5 45q0 51 -23 67t-69 19q-32 2 -64.5 2h-64.5q-19 0 -27.5 8t-11 20t-1.5 27t1 29q0 19 12 27t29.5 10.5t36 1t31.5 -1.5q34 0 58.5 2.5t39.5 13t22 31t7 57.5q0 41 -23 56.5t-71 15.5 q-23 0 -45 -2.5t-45 -5.5q-11 -2 -23 -5t-23 -3q-14 0 -22 10.5t-12 25.5t-5 31t-1 27t4 17.5t12 13.5q6 4 28 7.5t47.5 6t48.5 3.5t32 1q51 0 94.5 -8t75.5 -29.5t50.5 -58.5t18.5 -94q0 -45 -11.5 -82t-45.5 -68q52 -28 69 -71t17 -99zM578 717q0 -47 -50 -47h-376 q-21 0 -31 7t-14 18.5t-3.5 26.5t0.5 30q0 22 24 53.5t60 68.5t78 78t78 83t60 83t24 78q0 38 -15.5 55t-60.5 17q-28 0 -55 -1.5t-55 -6.5q-13 -2 -27 -5.5t-27 -3.5q-15 0 -24 9t-13.5 22.5t-6 28.5t-1.5 26q0 23 14.5 31.5t32.5 11.5q41 7 80.5 11t79.5 4q46 0 86.5 -9 t71 -30t48 -55.5t17.5 -86.5q0 -69 -27.5 -128t-69.5 -110.5t-93 -97t-98 -87.5q62 3 121.5 5.5t121.5 2.5q21 0 31.5 -7t14.5 -18.5t4 -26.5v-30z"></glyph><glyph glyph-name="oneeighth" unicode="⅛" d="M414 735q0 -23 -11.5 -37t-35.5 -14h-37q-29 0 -44.5 9.5t-15.5 41.5v516q-5 -2 -14.5 -6.5t-21 -9t-21.5 -7.5t-14 -3q-14 0 -22 7.5t-11.5 19t-4.5 24t-1 22.5q0 19 9.5 28t25.5 15q21 9 41.5 18.5t41.5 17.5t43 13t46 5q21 0 34 -13t13 -34v-613zM1106 1391 q0 -3 -19.5 -43t-52.5 -106t-78 -153.5t-96 -186.5t-105.5 -205t-107 -207.5t-101 -195t-87 -168t-64.5 -125t-35 -67.5q-6 -16 -24 -16q-7 0 -17 4.5t-19.5 10t-18.5 11.5t-15 9q-16 10 -16 27q0 3 19.5 42.5t52.5 105.5t78 154t96 187t105.5 204.5t107 207t100.5 195 t86.5 168t64.5 125t35 67.5q10 16 27 16q4 0 14 -4.5t20.5 -10.5t20 -12t13.5 -8q16 -10 16 -26zM1210 199q0 23 -7.5 38t-21 26t-32.5 19.5t-41 18.5q-13 -6 -30.5 -12.5t-33.5 -17.5t-27 -28t-11 -44q0 -14 3.5 -29t14.5 -28t31 -21t53 -8q31 0 51 9t31.5 22t15.5 28t4 27 zM1196 524q0 46 -21 60t-67 14q-28 0 -45 -7t-26.5 -17.5t-13 -24t-3.5 -25.5q0 -27 3.5 -41.5t12.5 -25t25.5 -20.5t42.5 -27q26 16 44 26t28.5 21t15 26t4.5 41zM1356 180q0 -60 -18.5 -98t-51.5 -59t-78.5 -29t-99.5 -8q-61 0 -107 9.5t-77.5 32t-47.5 59.5t-16 93 q0 37 7 62.5t22 44.5t39 35t59 34q-35 21 -57 38.5t-34.5 38t-17 47.5t-4.5 67q0 54 17.5 89t48.5 54.5t74 27t94 7.5q58 0 102 -7.5t73 -27t43.5 -54.5t14.5 -89q0 -36 -6.5 -63.5t-21 -50t-37.5 -40.5t-55 -35q33 -17 58 -32.5t42.5 -35t26 -45.5t8.5 -65z"></glyph><glyph glyph-name="threeeighths" unicode="⅜" d="M1141 1391q0 -3 -19.5 -43t-52.5 -106t-78 -153.5t-96 -186.5t-105.5 -205t-107 -207.5t-101 -195t-87 -168t-64.5 -125t-35 -67.5q-6 -16 -24 -16q-7 0 -17 4.5t-20 10t-19 11.5t-14 9q-16 10 -16 27q0 3 19.5 42.5t52.5 105.5t78 154t96 187t105.5 204.5t107 207 t100.5 195t86.5 168t64.5 125t35 67.5q10 16 27 16q4 0 14 -4.5t20.5 -10.5t19.5 -12t13 -8q17 -9 17 -26zM578 885q0 -120 -61.5 -175t-178.5 -55q-11 0 -32.5 1.5t-47.5 5.5t-53.5 9.5t-50.5 14t-38 19t-16 24.5v8q0 2 1 3t1 3q4 9 7 23t8 26.5t13 21.5t22 9q5 0 9 -1 t9 -3q42 -15 84.5 -26t87.5 -11q28 0 45.5 6t27.5 18.5t13.5 31.5t3.5 45q0 50 -23 66.5t-69 19.5q-32 2 -64.5 2h-64.5q-19 0 -27.5 8t-11 20t-1.5 27t1 29q0 19 12 27t29.5 10.5t36 1t31.5 -1.5q34 0 58.5 2.5t39.5 13t22 31t7 57.5q0 40 -23.5 56t-71.5 16 q-23 0 -45 -2.5t-45 -5.5q-11 -2 -22.5 -5.5t-22.5 -3.5q-15 0 -23 11t-12 26t-5 31t-1 27t4.5 17.5t12.5 12.5q6 5 28 8.5t47.5 6t48.5 3.5t31 1q51 0 94.5 -8t76 -29.5t51 -58.5t18.5 -95q0 -45 -11.5 -81.5t-45.5 -67.5q52 -28 69 -71.5t17 -98.5zM1210 199q0 23 -7.5 38 t-21 26t-32.5 19.5t-41 18.5q-13 -6 -30.5 -12.5t-33.5 -17.5t-27 -28t-11 -44q0 -14 3.5 -29t14.5 -28t31 -21t53 -8q31 0 51 9t31.5 22t15.5 28t4 27zM1196 524q0 46 -21 60t-67 14q-28 0 -45 -7t-26.5 -17.5t-13 -24t-3.5 -25.5q0 -27 3.5 -41.5t12.5 -25t25.5 -20.5 t42.5 -27q26 16 44 26t28.5 21t15 26t4.5 41zM1356 180q0 -60 -18.5 -98t-51.5 -59t-78.5 -29t-99.5 -8q-61 0 -107 9.5t-77.5 32t-47.5 59.5t-16 93q0 37 7 62.5t22 44.5t39 35t59 34q-35 21 -57 38.5t-34.5 38t-17 47.5t-4.5 67q0 54 17.5 89t48.5 54.5t74 27t94 7.5 q58 0 102 -7.5t73 -27t43.5 -54.5t14.5 -89q0 -36 -6.5 -63.5t-21 -50t-37.5 -40.5t-55 -35q33 -17 58 -32.5t42.5 -35t26 -45.5t8.5 -65z"></glyph><glyph glyph-name="fiveeighths" unicode="⅝" d="M1137 1391q0 -3 -19.5 -43t-52.5 -106t-78 -153.5t-96 -186.5t-105.5 -205t-107 -207.5t-101 -195t-87 -168t-64.5 -125t-35 -67.5q-6 -16 -24 -16q-7 0 -17 4.5t-20 10t-19 11.5t-14 9q-16 10 -16 27q0 3 19.5 42.5t52.5 105.5t78 154t96 187t105.5 204.5t107 207 t100.5 195t86.5 168t64.5 125t35 67.5q10 16 27 16q4 0 14 -4.5t20.5 -10.5t19.5 -12t13 -8q17 -10 17 -26zM584 903q0 -112 -61.5 -175.5t-176.5 -63.5q-29 0 -60 3t-59 7.5t-51 10.5t-37 13q-10 5 -10 15q0 6 2 18t4.5 24.5t5 24t4.5 17.5l6 18t15 12q2 0 10.5 -2t18 -4.5 t18.5 -5.5l12 -4q31 -8 56 -14t57 -6q41 0 70.5 24.5t29.5 83.5q0 22 -1.5 40.5t-12.5 37.5q-14 23 -41.5 32t-58.5 9q-20 0 -38.5 -2.5t-39.5 -5.5q-16 -2 -32 -5.5t-32 -3.5q-24 0 -24 21v4l28 322q2 15 5.5 23.5t23.5 8.5h324q15 0 21 -8t7.5 -19t0.5 -23.5t-1 -22.5 q0 -9 -0.5 -18.5t-3 -18t-8.5 -14t-16 -5.5h-61.5t-58 0.5t-58 1t-62.5 2.5l-8 -120q10 1 16.5 2.5l13 3t13 2t16.5 0.5q13 0 36 0.5t49.5 -4t53.5 -17t48 -37.5q18 -21 27.5 -44t14 -46.5t5 -46.5t0.5 -45zM1210 199q0 23 -7.5 38t-21 26t-32.5 19.5t-41 18.5 q-13 -6 -30.5 -12.5t-33.5 -17.5t-27 -28t-11 -44q0 -14 3.5 -29t14.5 -28t31 -21t53 -8q31 0 51 9t31.5 22t15.5 28t4 27zM1196 524q0 46 -21 60t-67 14q-28 0 -45 -7t-26.5 -17.5t-13 -24t-3.5 -25.5q0 -27 3.5 -41.5t12.5 -25t25.5 -20.5t42.5 -27q26 16 44 26t28.5 21 t15 26t4.5 41zM1356 180q0 -60 -18.5 -98t-51.5 -59t-78.5 -29t-99.5 -8q-61 0 -107 9.5t-77.5 32t-47.5 59.5t-16 93q0 37 7 62.5t22 44.5t39 35t59 34q-35 21 -57 38.5t-34.5 38t-17 47.5t-4.5 67q0 54 17.5 89t48.5 54.5t74 27t94 7.5q58 0 102 -7.5t73 -27t43.5 -54.5 t14.5 -89q0 -36 -6.5 -63.5t-21 -50t-37.5 -40.5t-55 -35q33 -17 58 -32.5t42.5 -35t26 -45.5t8.5 -65z"></glyph><glyph glyph-name="seveneighths" unicode="⅞" d="M1079 1391q0 -3 -19.5 -43t-52.5 -106t-78 -153.5t-96 -186.5t-105.5 -205t-107 -207.5t-100.5 -195t-86.5 -168t-64.5 -125t-35 -67.5q-6 -16 -25 -16q-7 0 -16.5 4.5t-19.5 10t-19 11.5t-14 9q-17 9 -17 27q0 3 19.5 42.5t52.5 105.5t78 154t96 187t105.5 204.5 t107 207t101 195t87 168t64.5 125t35 67.5q10 16 26 16q5 0 15 -4.5t20.5 -10.5t19.5 -12t13 -8q16 -10 16 -26zM584 1356q0 -3 -1 -9.5t-3 -9.5l-261 -594q-3 -7 -7 -17t-9.5 -19.5t-13.5 -16t-19 -6.5h-88q-9 0 -15.5 2.5t-6.5 11.5q0 3 2 8.5t4.5 12t5 12.5t4.5 8 l225 518q-36 -2 -64.5 -3t-56 -1.5t-56 -1t-64.5 -0.5q-20 0 -24.5 9t-4.5 24v70q0 15 6 20.5t23 5.5h362h18.5t20.5 -1.5t16.5 -7t6.5 -15.5zM1210 199q0 23 -7.5 38t-21 26t-32.5 19.5t-41 18.5q-13 -6 -30.5 -12.5t-33.5 -17.5t-27 -28t-11 -44q0 -14 3.5 -29t14.5 -28 t31 -21t53 -8q31 0 51 9t31.5 22t15.5 28t4 27zM1196 524q0 46 -21 60t-67 14q-28 0 -45 -7t-26.5 -17.5t-13 -24t-3.5 -25.5q0 -27 3.5 -41.5t12.5 -25t25.5 -20.5t42.5 -27q26 16 44 26t28.5 21t15 26t4.5 41zM1356 180q0 -60 -18.5 -98t-51.5 -59t-78.5 -29t-99.5 -8 q-61 0 -107 9.5t-77.5 32t-47.5 59.5t-16 93q0 37 7 62.5t22 44.5t39 35t59 34q-35 21 -57 38.5t-34.5 38t-17 47.5t-4.5 67q0 54 17.5 89t48.5 54.5t74 27t94 7.5q58 0 102 -7.5t73 -27t43.5 -54.5t14.5 -89q0 -36 -6.5 -63.5t-21 -50t-37.5 -40.5t-55 -35q33 -17 58 -32.5 t42.5 -35t26 -45.5t8.5 -65z"></glyph><glyph glyph-name="partialdiff" unicode="∂" d="M426 1138l-135 60q70 157 168 225t192 68q76 0 137.5 -39.5t92.5 -90.5q47 -79 69.5 -187t22.5 -248q0 -288 -86.5 -512.5t-233.5 -331.5t-289 -107q-137 0 -222.5 91t-85.5 256q0 226 153 387q197 207 649 215q-4 168 -24 256t-68 135.5t-113 47.5q-62 0 -121 -49.5 t-106 -175.5zM854 796q-244 -14 -357.5 -68t-187 -176.5t-73.5 -248.5q0 -83 51 -137t119 -54q75 0 160 55q117 76 190.5 234.5t97.5 394.5z"></glyph><glyph glyph-name="uni2206" unicode="∆" d="M1227 0h-1200l628 1386zM991 82l-399 967l-440 -967h839z"></glyph><glyph glyph-name="product" unicode="∏" d="M161 1491h1362v-1922h-191v1748h-978v-1748h-193v1922z"></glyph><glyph glyph-name="summation" unicode="∑" d="M139 1491h1237v-164h-988l607 -775l-649 -822h1040v-161h-1264v187l620 788l-603 772v175z"></glyph><glyph glyph-name="minus" unicode="−" d="M932 432h-862v129h862v-129z"></glyph><glyph glyph-name="fraction" unicode="∕" d="M903 1391q0 -11 -2 -15l-741 -1442q-10 -16 -27 -16q-2 0 -14 4l-53 31q-17 6 -17 27q0 6 4 14l740 1442q10 16 26 16q5 0 15 -4l55 -31q14 -7 14 -26z"></glyph><glyph glyph-name="periodcentered" unicode="∙" d="M391 692q0 -16 -10 -26l-111 -111q-10 -10 -24 -10q-17 0 -27 10l-110 111q-11 9 -11 24q0 18 11 27l110 110q9 11 25 11q17 0 26 -11l111 -110q10 -10 10 -25z"></glyph><glyph glyph-name="radical" unicode="√" d="M1124 1870l-311 -1948l-496 1022l-198 -92l-35 63l301 152l403 -823h5l258 1626h73z"></glyph><glyph glyph-name="infinity" unicode="∞" d="M689 812q105 132 164 174q80 58 169 58q105 0 196.5 -76t91.5 -245q0 -118 -34 -185.5t-106 -108.5t-148 -41q-89 0 -169 57q-59 43 -164 175q-136 -171 -289 -171q-101 0 -173.5 76.5t-72.5 190.5q0 113 72.5 190t173.5 77q153 0 289 -171zM758 717q87 -135 159 -185 q46 -33 103 -33q76 0 127.5 56t51.5 158q0 106 -52.5 162t-130.5 56q-49 0 -92 -28q-58 -39 -166 -186zM620 716q-80 100 -128 128.5t-92 28.5q-58 0 -96.5 -41t-38.5 -113q0 -71 40 -113.5t97 -42.5q101 0 218 153z"></glyph><glyph glyph-name="integral" unicode="∫" d="M561 1755q0 -29 -12.5 -53t-34 -36.5t-47.5 -12.5q-36 0 -76 35q-20 20 -39 20q-41 0 -41 -63q0 -46 11 -146q18 -204 27 -371t9 -294l-2 -121l-14 -471q-6 -190 -49 -320q-22 -67 -68 -104t-106 -37q-54 0 -86.5 33.5t-32.5 87.5q0 44 25 71t65 27q42 0 70 -33 q13 -14 24 -22t25 -8q39 0 39 61q0 37 -10 119q-20 170 -29 395q-3 104 -6 229q-2 70 -2 154l16 553q6 191 66 317q19 40 63.5 69.5t87.5 29.5q31 0 61.5 -15t48 -41t17.5 -53z"></glyph><glyph glyph-name="approxequal" unicode="≈" d="M51 738v205q106 120 278 120q60 0 125.5 -17t188.5 -70q69 -30 103.5 -38.5t69.5 -8.5q65 0 134.5 39t123.5 98v-212q-64 -60 -129.5 -87t-147.5 -27q-60 0 -114 13.5t-173 67t-198 53.5q-64 0 -120.5 -27.5t-140.5 -108.5zM51 376v205q106 120 278 120q60 0 125.5 -17 t188.5 -70q69 -29 103.5 -38t69.5 -9q65 0 134.5 39t123.5 98v-212q-64 -60 -129.5 -87t-147.5 -27q-60 0 -114 14t-173 67t-198 53q-64 0 -120.5 -27.5t-140.5 -108.5z"></glyph><glyph glyph-name="notequal" unicode="≠" d="M495 417l-194 -445h-136l195 445h-282v168h356l122 277h-478v168h551l196 444h134l-195 -444h282v-168h-356l-121 -277h477v-168h-551z"></glyph><glyph glyph-name="lessequal" unicode="≤" d="M1116 125l-1112 469v127l1112 469v-178l-858 -355l858 -354v-178zM1120 -156h-1116v142h1116v-142z"></glyph><glyph glyph-name="greaterequal" unicode="≥" d="M1118 594l-1110 -469v178l856 354l-856 355v178l1110 -469v-127zM1098 -156h-1092v142h1092v-142z"></glyph><glyph glyph-name="lozenge" unicode="◊" d="M549 1422l418 -713l-418 -709h-111l-391 709l391 713h111zM495 1325l-340 -616l340 -615l359 615z"></glyph><glyph glyph-name="uniF001" unicode="" d="M1059 1167q0 -35 -8.5 -47t-36.5 -12h-78q-49 0 -60.5 9.5t-11.5 49.5v74q0 35 10.5 45t43.5 10h96q45 0 45 -55v-74zM1059 59q0 -35 -8.5 -47t-36.5 -12h-78q-49 0 -60.5 9.5t-11.5 49.5v838q0 35 10.5 45t43.5 10h96q45 0 45 -55v-838zM709 1337q0 -55 -7 -110 q-3 -21 -20 -21q-16 0 -60 10.5t-110 10.5q-84 0 -102 -23q-13 -13 -18 -48.5t-5 -104.5v-99h213q35 0 46 -9.5t11 -37.5v-28q0 -50 -8.5 -62t-48.5 -12h-213v-744q0 -35 -9 -47t-36 -12h-72q-48 0 -59.5 9.5t-11.5 49.5v744h-58q-34 0 -43.5 10.5t-9.5 44.5v47q0 47 53 47 h58v99q0 98 10.5 142.5t34.5 80.5q43 63 114 86.5t207 23.5q95 0 119.5 -8.5t24.5 -38.5z"></glyph><glyph glyph-name="uniF001" unicode="ﬁ" d="M1059 1167q0 -35 -8.5 -47t-36.5 -12h-78q-49 0 -60.5 9.5t-11.5 49.5v74q0 35 10.5 45t43.5 10h96q45 0 45 -55v-74zM1059 59q0 -35 -8.5 -47t-36.5 -12h-78q-49 0 -60.5 9.5t-11.5 49.5v838q0 35 10.5 45t43.5 10h96q45 0 45 -55v-838zM709 1337q0 -55 -7 -110 q-3 -21 -20 -21q-16 0 -60 10.5t-110 10.5q-84 0 -102 -23q-13 -13 -18 -48.5t-5 -104.5v-99h213q35 0 46 -9.5t11 -37.5v-28q0 -50 -8.5 -62t-48.5 -12h-213v-744q0 -35 -9 -47t-36 -12h-72q-48 0 -59.5 9.5t-11.5 49.5v744h-58q-34 0 -43.5 10.5t-9.5 44.5v47q0 47 53 47 h58v99q0 98 10.5 142.5t34.5 80.5q43 63 114 86.5t207 23.5q95 0 119.5 -8.5t24.5 -38.5z"></glyph><glyph glyph-name="uniF002" unicode="" d="M1079 59q0 -35 -9 -47t-36 -12h-73q-47 0 -58.5 9.5t-11.5 49.5v1254q0 35 9.5 45t43.5 10h90q45 0 45 -55v-1254zM709 1337q0 -55 -7 -110q-3 -21 -20 -21q-16 0 -60 10.5t-110 10.5q-84 0 -102 -23q-13 -13 -18 -48.5t-5 -104.5v-99h213q35 0 46 -9.5t11 -37.5v-28 q0 -50 -8.5 -62t-48.5 -12h-213v-744q0 -35 -9 -47t-36 -12h-72q-48 0 -59.5 9.5t-11.5 49.5v744h-58q-34 0 -43.5 10.5t-9.5 44.5v47q0 47 53 47h58v99q0 98 10.5 142.5t34.5 80.5q43 63 114 86.5t207 23.5q95 0 119.5 -8.5t24.5 -38.5z"></glyph><glyph glyph-name="uniF002" unicode="ﬂ" d="M1079 59q0 -35 -9 -47t-36 -12h-73q-47 0 -58.5 9.5t-11.5 49.5v1254q0 35 9.5 45t43.5 10h90q45 0 45 -55v-1254zM709 1337q0 -55 -7 -110q-3 -21 -20 -21q-16 0 -60 10.5t-110 10.5q-84 0 -102 -23q-13 -13 -18 -48.5t-5 -104.5v-99h213q35 0 46 -9.5t11 -37.5v-28 q0 -50 -8.5 -62t-48.5 -12h-213v-744q0 -35 -9 -47t-36 -12h-72q-48 0 -59.5 9.5t-11.5 49.5v744h-58q-34 0 -43.5 10.5t-9.5 44.5v47q0 47 53 47h58v99q0 98 10.5 142.5t34.5 80.5q43 63 114 86.5t207 23.5q95 0 119.5 -8.5t24.5 -38.5z"></glyph></font>
</defs>
</svg>
