<?xml version="1.0" encoding="UTF-8" standalone="no"?> <svg xmlns="http://www.w3.org/2000/svg" xmlns:xlink="http://www.w3.org/1999/xlink" version="1.1"><metadata> Created by FontForge 20170731 at Tue May 25 13:35:34 2010 By Aleksey,,, Copyright (c) Monotype Imaging Inc. All rights reserved. </metadata><defs><font id="Cachet-Medium"><glyph glyph-name=".notdef" d="M51 0v1536h922v-1536h-922zM179 128h666v1280h-666v-1280z"></glyph><glyph glyph-name=".null"></glyph><glyph glyph-name="nonmarkingreturn"></glyph><glyph glyph-name="space" unicode=" "></glyph><glyph glyph-name="exclam" unicode="!" d="M485 98l-141 -139q-17 -14 -31 -14t-32 14l-142 139q-14 11 -14 33q0 21 14 35l142 141q15 15 30 15q18 0 33 -15l141 -141q15 -14 15 -35q0 -22 -15 -33zM440 1280l-16 -768q-2 -46 -19.5 -69t-62.5 -23h-55q-56 0 -73 17t-19 75l-17 768v4q0 48 22 66t68 18h90 q43 0 62.5 -26t19.5 -60v-2z"></glyph><glyph glyph-name="quotedbl" unicode="&quot;" d="M334 1477l-21 -230q-4 -39 -19.5 -58.5t-62.5 -19.5h-30q-40 0 -63 17t-27 61l-21 230v12q0 65 90 65h72q40 0 61 -21t21 -50v-6zM674 1477l-21 -230q-4 -39 -19.5 -58.5t-62.5 -19.5h-32q-41 0 -62.5 16.5t-25.5 61.5l-21 230v12q0 65 90 65h70q41 0 62.5 -21.5 t21.5 -49.5v-6z"></glyph><glyph glyph-name="numbersign" unicode="#" d="M760 786h-248l-49 -215h248zM1151 971l-45 -185h-137l-49 -215h133l-45 -184h-134l-75 -324h-211l78 324h-248l-78 -324h-215l80 324h-139l45 184h137l51 215h-137l45 185h135l78 321h211l-74 -321h250l74 321h211l-78 -321h137z"></glyph><glyph glyph-name="dollar" unicode="$" d="M741 348v25q0 65 -6 89t-28.5 39.5t-81.5 39.5v-320q68 3 92 27.5t24 99.5zM508 856v291q-76 0 -94.5 -26.5t-18.5 -96.5v-27q0 -43 9.5 -68t33.5 -40t70 -33zM995 422q0 -93 -7.5 -167.5t-31.5 -119.5q-41 -78 -127.5 -111t-203.5 -40v-127q0 -34 -9.5 -47t-35.5 -13 h-33q-26 0 -32.5 9.5t-6.5 50.5v125q-141 3 -260 14q-62 6 -84.5 23t-22.5 49v69q0 58 15 78.5t63 20.5t145 -8t144 -9v371l-56 26t-55 23q-80 35 -131 68.5t-78 74.5t-37 96t-10 138q0 128 47.5 211.5t155.5 122.5q87 30 164 32v129q0 36 9.5 46t43.5 10h19q45 0 45 -56 v-129q138 0 235 -10q64 -6 86.5 -21.5t22.5 -50.5v-67q0 -56 -15.5 -77t-64.5 -21q-33 0 -98 6t-123 6h-43v-338q131 -54 202.5 -91t107.5 -74.5t48 -85.5t12 -136z"></glyph><glyph glyph-name="percent" unicode="%" d="M467 1032q0 126 -27 170q-17 33 -90 33q-74 0 -90 -33q-24 -48 -24 -168q0 -118 24 -168q16 -32 90 -32q72 0 90 32q27 52 27 166zM657 1034q0 -109 -27.5 -188.5t-97.5 -126.5t-186 -47q-114 0 -181 47.5t-93.5 128t-26.5 186.5q0 107 27 187t95 127t181 47 q89 0 149.5 -27t95 -74.5t49.5 -113t15 -146.5zM1483 334q0 125 -25 168q-18 33 -90 33q-75 0 -92 -33q-23 -48 -23 -168t23 -168q16 -33 92 -33q73 0 90 33q25 48 25 168zM1675 336q0 -169 -70 -266t-241 -97q-114 0 -181.5 47t-94.5 127t-27 187q0 362 305 362 q170 0 239.5 -96t69.5 -264zM1335 1358q0 -16 -8 -29l-745 -1376q-20 -35 -58 -35q-16 0 -22 4l-80 47q-19 11 -19 43q0 19 7 29l747 1376q18 35 55 35q17 0 23 -4l80 -47q20 -11 20 -43z"></glyph><glyph glyph-name="ampersand" unicode="&amp;" d="M862 250q-57 51 -107 101.5t-113.5 119t-100.5 109.5q-66 -40 -92 -62.5t-38 -58t-12 -107.5q0 -59 12.5 -94t40 -50t73 -19.5t120.5 -4.5q86 0 135.5 14t81.5 52zM780 1077q0 44 -15.5 66.5t-50.5 30.5t-102 8q-49 0 -77.5 -9.5t-40 -34t-11.5 -73.5q0 -51 30.5 -109 t82.5 -108q100 49 142 96.5t42 132.5zM1321 109q0 -22 -18 -43l-52 -58q-32 -35 -55 -35q-5 0 -29 13q-31 20 -72 55t-65 59q-68 -77 -167 -105t-218 -28q-145 0 -253.5 25t-179.5 106.5t-71 239.5q0 107 25.5 180.5t79.5 126t141 98.5q-46 51 -81 102.5t-55 112t-20 125.5 q0 104 44.5 173t129.5 103t207 34q103 0 180.5 -14.5t128.5 -48.5t78 -95.5t27 -157.5q0 -88 -34.5 -152t-92 -111.5t-168.5 -117.5q40 -47 123 -135.5t125 -126.5q20 66 39 230q5 57 69 57h72q37 0 50.5 -15t13.5 -67q0 -85 -22.5 -185.5t-57.5 -168.5q124 -104 147 -129 q31 -34 31 -47z"></glyph><glyph glyph-name="quotesingle" unicode="'" d="M334 1477l-21 -230q-4 -40 -19 -59t-61 -19h-32q-40 0 -63 17t-27 61l-21 230v10q0 38 24.5 52.5t67.5 14.5h70q40 0 61 -21t21 -50v-6z"></glyph><glyph glyph-name="parenleft" unicode="(" d="M655 -279q-160 5 -255.5 43.5t-151.5 145.5q-71 136 -92 339.5t-21 432.5q0 134 7 270t32.5 274t73.5 228q56 108 154 149t253 44v-240q-115 -1 -162 -45t-73 -150q-15 -69 -22.5 -131t-12 -139.5t-5.5 -123t-1 -134.5q0 -118 2 -195t11 -164.5t28 -168.5q16 -68 40 -110 t69 -63t126 -22v-240z"></glyph><glyph glyph-name="parenright" unicode=")" d="M508 682q0 -139 -7 -271.5t-33.5 -271.5t-74.5 -229q-56 -107 -151.5 -145.5t-255.5 -43.5v240q82 2 127.5 22.5t69 60.5t40.5 112q27 112 34 231t7 297t-7 297t-34 231q-24 106 -72 150t-165 45v240q155 -3 253 -44t154 -149q48 -90 74.5 -229t33.5 -271.5t7 -271.5z "></glyph><glyph glyph-name="asterisk" unicode="*" d="M659 1243q9 -23 9 -49q0 -53 -64 -76l-67 -22l67 -68q23 -23 23 -55q0 -38 -35 -66l-25 -20q-32 -27 -59 -27q-39 0 -66 49l-51 95l-51 -95q-25 -49 -66 -49q-26 0 -59 27l-25 20q-34 30 -34 68q0 33 20 53l66 72l-62 18q-65 21 -65 78q0 26 8 47l10 33q19 61 64 61 q15 0 32 -10l74 -45l-8 72q0 6 -0.5 10t-1.5 8q0 80 92 80h31q73 0 73 -76v-10l-6 -76l70 37q13 8 33 8q45 0 63 -59z"></glyph><glyph glyph-name="plus" unicode="+" d="M1038 426h-358v-346h-225v346h-359v211h359v344h225v-344h358v-211z"></glyph><glyph glyph-name="comma" unicode="," d="M504 143q0 -55 -93 -206.5t-186 -282.5q-29 -41 -55 -41q-19 0 -39 14l-55 37q-17 10 -17 31q0 10 14.5 31t52 70t64.5 87q47 64 66 107l-123 114q-14 13 -14 33q0 23 14 37l137 154q13 14 33 14q21 0 35 -14l151 -144q15 -14 15 -41z"></glyph><glyph glyph-name="hyphen" unicode="-" d="M854 522q0 -43 -17 -59.5t-77 -16.5h-572q-50 0 -70 14.5t-20 47.5v94q0 29 28 42t62 13h572q94 0 94 -55v-80z"></glyph><glyph glyph-name="period" unicode="." d="M485 98l-141 -139q-17 -14 -31 -14t-32 14l-142 139q-14 11 -14 33q0 21 14 35l142 141q15 15 30 15q18 0 33 -15l141 -141q15 -14 15 -35q0 -22 -15 -33z"></glyph><glyph glyph-name="slash" unicode="/" d="M807 1311l-557 -1321q-21 -51 -62 -51q-16 0 -32 8l-72 33q-53 23 -53 51q0 19 18 59l559 1321q22 49 60 49q14 0 39 -10l71 -35q41 -20 41 -53q0 -21 -12 -51z"></glyph><glyph glyph-name="zero" unicode="0" d="M872 684q0 261 -51 383q-19 47 -65 71.5t-119 24.5q-72 0 -120 -25t-66 -71q-50 -119 -50 -383t50 -383q18 -44 66 -70t120 -26q73 0 119 25.5t65 70.5q51 122 51 383zM1141 684q0 -169 -28.5 -304.5t-92.5 -229.5q-59 -86 -154.5 -131.5t-228.5 -45.5q-134 0 -230.5 46 t-154.5 131q-43 61 -69.5 145t-38 179t-11.5 210t11.5 210t38 178.5t69.5 146.5q57 83 154.5 129.5t230.5 46.5q132 0 229 -46t154 -130q43 -63 70.5 -147.5t39 -178.5t11.5 -209z"></glyph><glyph glyph-name="one" unicode="1" d="M817 90q0 -45 -18 -67.5t-64 -22.5h-71q-42 0 -64 6t-33.5 26t-11.5 58v1018q-116 -57 -145 -57q-48 0 -54 34l-14 89q0 6 -0.5 10t-1.5 8q0 26 15.5 42.5t47.5 29.5q121 53 197.5 78.5t134.5 25.5q44 0 63 -25t19 -61v-1192z"></glyph><glyph glyph-name="two" unicode="2" d="M1051 84q0 -84 -90 -84h-730q-44 0 -64 19t-20 65v70q0 23 9 45.5t23.5 42t35.5 41t55 57.5q121 127 219.5 230.5t118.5 129.5q84 104 123 171t39 145q0 89 -30 119t-119 30q-65 0 -114.5 -5t-98 -14t-70.5 -13.5t-33 -4.5q-56 0 -65 56l-15 90q-2 6 -2 18q0 65 84 78 q198 25 314 25q134 0 228.5 -36.5t143.5 -114t49 -193.5q0 -88 -26 -173.5t-74 -162.5q-62 -103 -162 -204t-305 -290q52 3 152.5 7t199 6t134.5 2q56 0 73 -27t17 -70v-55z"></glyph><glyph glyph-name="three" unicode="3" d="M1061 414q0 -225 -113 -333t-344 -108q-84 0 -205 19t-198 59q-49 25 -49 58q0 14 2 20l30 100q19 54 64 54q13 0 31 -4q193 -72 333 -72q68 0 110 21t58.5 65.5t16.5 116.5q0 86 -34.5 119.5t-109.5 45.5q-31 6 -83.5 8.5t-125.5 2.5h-36q-63 0 -90 13.5t-27 47.5v96 q0 64 74 64h131q110 0 161.5 16.5t69.5 60.5t18 132t-38 121.5t-150 33.5q-80 0 -174 -14t-86 -14q-40 0 -45 24l-27 127q-2 9 -2 23q0 23 31 45q15 10 110.5 21.5t186.5 11.5q234 0 344.5 -86t110.5 -277q0 -100 -28 -169.5t-91 -123.5q94 -44 134 -120.5t40 -204.5z"></glyph><glyph glyph-name="four" unicode="4" d="M709 565v430l-328 -444q148 7 328 14zM1100 422q0 -86 -86 -86h-56v-246q0 -45 -18 -67.5t-63 -22.5h-62q-58 0 -82 17t-24 73v246h-502q-47 0 -57 31l-35 110q-6 23 -6 37q0 28 26 64l561 747q33 43 68 43h113q43 0 62 -25t19 -61v-711h56q56 0 71 -25t15 -71v-53z"></glyph><glyph glyph-name="five" unicode="5" d="M1067 428q0 -143 -52.5 -246t-153.5 -156t-245 -53q-92 0 -208 20t-170 46q-41 20 -41 55q1 4 1.5 7t0.5 8l16 92q6 34 24.5 53.5t43.5 19.5q8 0 31.5 -7t48.5 -14.5l55 -16.5q118 -33 196 -33q191 0 191 231q0 48 -10 94t-23 70q-12 26 -49 38.5t-135 12.5 q-73 0 -156.5 -11t-97.5 -11q-78 0 -78 73v9l45 567q4 52 23 72t65 20h567q42 0 65 -17.5t23 -66.5v-55q0 -45 -15.5 -70.5t-72.5 -25.5q-159 0 -421 4l-27 -267q33 4 117 4q61 0 104.5 -3.5t81.5 -10.5q124 -25 190 -141t66 -291z"></glyph><glyph glyph-name="six" unicode="6" d="M834 444q0 115 -37 159t-121 44q-59 0 -128 -11t-126 -30q-2 -54 -4 -94t-2 -66q0 -75 8 -115t33 -71q44 -57 182 -57q76 0 117 20t59.5 73t18.5 148zM1096 428q0 -155 -53 -255.5t-159.5 -150t-269.5 -49.5q-185 0 -297 72q-64 41 -99.5 99.5t-50.5 143.5t-15 212 q0 197 14 347.5t43 258.5q40 150 151 219.5t299 69.5q118 0 263 -13q59 -5 78.5 -21.5t19.5 -70.5v-65q0 -74 -72 -74q-12 0 -58.5 6t-104.5 10t-154 4q-64 0 -99.5 -19t-52.5 -58q-15 -38 -29 -104.5t-20 -147.5q149 32 256 32q112 0 189 -26.5t125.5 -80t72 -136.5 t23.5 -203z"></glyph><glyph glyph-name="seven" unicode="7" d="M1087 1286q0 -29 -8 -45l-469 -1112q-32 -78 -57 -103.5t-61 -25.5h-105q-27 0 -51.5 13.5t-24.5 45.5q0 13 33 91l420 993q-243 -10 -455 -10q-55 0 -70.5 26.5t-15.5 69.5v55q0 48 22.5 66t63.5 18h678q66 0 83 -14t17 -68z"></glyph><glyph glyph-name="eight" unicode="8" d="M844 360q0 66 -40.5 105.5t-166.5 105.5q-52 -30 -84 -48t-62.5 -42t-47.5 -54t-17 -67q0 -78 22 -114t59 -44.5t111 -8.5h17h16q74 0 111.5 8.5t59.5 44.5t22 114zM817 1030q0 93 -16 119q-12 21 -45 25t-121 4q-89 0 -121.5 -5t-44.5 -24q-14 -19 -14 -119 q0 -65 20 -102t47.5 -57.5t104.5 -69.5q25 16 68.5 41.5t69 49.5t39 57t13.5 81zM1106 367q0 -59 -8 -111.5t-27.5 -93.5t-48.5 -74q-28 -33 -66.5 -55.5t-85 -35t-105 -18.5t-130.5 -6q-142 0 -233 25.5t-148 85.5q-46 51 -68 118.5t-22 164.5q0 88 20.5 140t67.5 90.5 t139 90.5q-82 55 -124 101t-58 101.5t-16 143.5q0 137 41 215t136.5 112t264.5 34q168 0 264.5 -34t138 -111.5t41.5 -215.5q0 -72 -18.5 -129t-64 -107.5t-128.5 -105.5q90 -51 139 -92t74 -97t25 -136z"></glyph><glyph glyph-name="nine" unicode="9" d="M852 801q0 44 -2 84.5t-8 95.5q-12 98 -54.5 145.5t-152.5 47.5q-74 0 -114.5 -20t-58.5 -71.5t-18 -142.5q0 -59 7.5 -92.5t26.5 -54t48.5 -29t79.5 -8.5q124 0 246 45zM1122 750q0 -145 -5 -231t-15.5 -148.5t-30.5 -118.5q-32 -95 -96.5 -157.5t-160.5 -92t-228 -29.5 q-189 0 -357 58q-49 16 -49 67q0 19 15 64l20 57q16 45 55 45q10 0 20.5 -3t28 -9t38 -13.5t30.5 -11.5q110 -28 234 -28q122 0 178 65q24 28 34.5 71t12.5 94t4 134q-73 -21 -130 -30t-124 -9q-202 0 -308 103.5t-106 308.5q0 229 112 344t349 115q184 0 287.5 -63 t147.5 -204t44 -378z"></glyph><glyph glyph-name="colon" unicode=":" d="M473 98l-141 -139q-17 -14 -31 -14t-33 14l-141 139q-14 11 -14 33q0 21 14 35l141 141q15 15 31 15q18 0 33 -15l141 -141q14 -14 14 -35q0 -22 -14 -33zM473 655l-141 -141q-14 -14 -31 -14q-19 0 -33 14l-141 141q-14 16 -14 33q0 21 14 35l141 141q15 15 31 15 q18 0 33 -15l141 -141q14 -14 14 -33t-14 -35z"></glyph><glyph glyph-name="semicolon" unicode=";" d="M504 143q0 -55 -93 -206.5t-186 -282.5q-29 -41 -55 -41q-19 0 -39 14l-55 37q-17 10 -17 31q0 10 14.5 31t52 70t64.5 87q47 64 66 107l-123 114q-14 13 -14 33q0 23 14 37l137 154q13 14 33 14q21 0 35 -14l151 -144q15 -14 15 -41zM483 651l-141 -141q-14 -14 -31 -14 q-18 0 -32 14l-142 141q-14 14 -14 33q0 21 14 35l142 141q14 14 30 14q19 0 33 -14l141 -141q15 -13 15 -33q0 -22 -15 -35z"></glyph><glyph glyph-name="less" unicode="&lt;" d="M1294 109l-1192 466v164l1192 467v-241l-800 -308l800 -307v-241z"></glyph><glyph glyph-name="equal" unicode="=" d="M930 264h-834v185h834v-185zM930 616h-834v187h834v-187z"></glyph><glyph glyph-name="greater" unicode="&gt;" d="M1325 575l-1190 -466v241l801 307l-801 308v241l1190 -467v-164z"></glyph><glyph glyph-name="question" unicode="?" d="M606 98l-141 -139q-17 -14 -31 -14t-33 14l-141 139q-14 11 -14 33q0 21 14 35l141 141q17 15 31 15q18 0 33 -15l141 -141q15 -15 15 -35q0 -21 -15 -33zM901 1067q0 -140 -110 -254q-38 -40 -104 -99.5t-93 -86.5q-39 -41 -52.5 -68t-13.5 -82q0 -33 -13.5 -45 t-59.5 -12h-74q-50 0 -64 17.5t-14 66.5v51q0 70 42.5 127t123 127.5t122.5 125t42 120.5q0 64 -30.5 92.5t-108.5 28.5q-55 0 -109 -7.5t-147 -25.5q-28 -6 -45 -6q-44 0 -50 34l-20 125q0 6 -0.5 9t-1.5 6q0 49 72 61q162 25 311 25q200 0 298.5 -78t98.5 -252z"></glyph><glyph glyph-name="at" unicode="@" d="M1235 260q-10 42 -10 160q-70 4 -101 4q-147 0 -197 -25t-50 -106q0 -133 75 -133q138 0 283 100zM1989 463q0 -245 -103.5 -375.5t-302.5 -130.5q-83 0 -168 41.5t-133 107.5q-62 -47 -114.5 -75t-111.5 -43t-132 -15q-99 0 -163.5 33.5t-97 100.5t-32.5 163 q0 160 88 227t246 85q60 7 141 11.5t119 4.5q0 101 -17 143q-18 47 -88 47q-111 0 -301 -43q-21 -6 -39 -6q-63 0 -63 66v55q0 71 59 84q45 11 153 25t181 14q84 0 166 -19.5t129 -72.5q46 -50 61 -112.5t15 -209.5v-145q0 -76 2 -112t8 -60q19 -86 104 -86q68 0 101 51 t33 205q0 266 -41.5 432t-173.5 261t-392 95q-212 0 -347.5 -44t-210 -135.5t-103.5 -230.5t-29 -349q0 -219 55.5 -371t188 -235t354.5 -83q108 0 196.5 19t198.5 55q23 8 33 8q33 0 45 -30l31 -76q10 -28 10 -41q0 -42 -63 -64q-118 -39 -245 -58t-235 -19 q-222 0 -382 67.5t-259.5 191.5t-145.5 291.5t-46 372.5q0 472 233.5 703t712.5 231q239 0 408 -64.5t271.5 -187.5t149 -297t46.5 -401z"></glyph><glyph glyph-name="A" unicode="A" d="M799 539l-164 483l-164 -483q38 1 70.5 1.5t91.5 0.5q58 0 91.5 -0.5t74.5 -1.5zM1249 61q0 -61 -73 -61h-113q-43 0 -63.5 18t-32.5 54l-90 256q-89 -2 -244 -2h-75.5t-85 0.5t-75.5 1.5l-82 -242q-16 -48 -36 -67t-68 -19h-94q-48 0 -64 11.5t-16 37.5q0 21 16 64 l420 1171q20 52 43.5 72t77.5 20h84q55 0 79 -20t42 -70l442 -1194q8 -20 8 -31z"></glyph><glyph glyph-name="B" unicode="B" d="M831 408q0 75 -18 106.5t-59 40.5q-61 14 -187 14h-121v-340q104 -4 148 -4q85 0 141 13q49 9 72.5 48t23.5 122zM774 989q0 72 -20 107q-13 22 -28.5 31.5t-40 12.5t-85.5 3q-34 0 -154 -4v-357h109q62 0 107 9q59 10 85.5 49.5t26.5 148.5zM1104 408q0 -198 -96 -304 q-38 -41 -83 -62.5t-111 -31.5t-150 -10h-394q-52 0 -75 19.5t-23 70.5v1194q0 53 26.5 68.5t71.5 15.5h267q170 0 231 -6t111 -31q77 -36 117 -120t40 -199q0 -94 -26.5 -158t-85.5 -113q96 -38 138 -119t42 -214z"></glyph><glyph glyph-name="C" unicode="C" d="M1059 55q0 -35 -23 -51t-84 -20q-35 -2 -82 -5.5t-70 -4.5t-81 -1q-139 0 -242 25q-135 33 -212 122t-106.5 222.5t-29.5 325.5q0 224 35.5 364t107 216t179 105t268.5 29q86 0 233 -10q63 -4 85 -20t22 -52v-67q0 -57 -14.5 -77.5t-63.5 -20.5q-16 0 -84 5t-137 5 q-68 0 -128 -6.5t-95 -22.5q-57 -26 -84 -84.5t-34 -138t-7 -227.5q0 -100 5.5 -171.5t24.5 -129.5t57.5 -94.5t102.5 -49.5q62 -10 158 -10q42 0 109.5 5t111.5 5q49 0 63.5 -20t14.5 -78v-68z"></glyph><glyph glyph-name="D" unicode="D" d="M928 666q0 132 -6 209t-35 139t-88 88q-65 28 -221 28q-51 0 -66 -0.5t-36.5 -2t-41.5 -3.5v-880q26 -2 59.5 -4t84.5 -2q83 0 147 10q86 15 130 62t58.5 129.5t14.5 226.5zM1208 670q0 -130 -13 -230t-49 -184t-105.5 -145t-178.5 -86q-67 -15 -130 -20t-116 -5h-356 q-51 0 -75.5 19.5t-24.5 70.5v1194q0 53 27.5 68.5t72.5 15.5h356q219 0 343 -51.5t186.5 -201.5t62.5 -445z"></glyph><glyph glyph-name="E" unicode="E" d="M981 84q0 -84 -88 -84h-633q-51 0 -75.5 19.5t-24.5 70.5v1194q0 53 27.5 68.5t72.5 15.5h633q45 0 66.5 -17.5t21.5 -66.5v-55q0 -43 -16 -69.5t-72 -26.5q-274 0 -459 6v-320q76 2 157.5 3.5t115 2t141.5 0.5q56 0 72 -26t16 -70v-29q0 -43 -16 -69.5t-72 -26.5 q-90 0 -190 2t-224 4v-381q215 7 459 7q56 0 72 -26.5t16 -70.5v-55z"></glyph><glyph glyph-name="F" unicode="F" d="M942 1229q0 -43 -16.5 -69.5t-71.5 -26.5q-91 0 -224 2t-196 4v-318q214 4 381 4q56 0 71 -25t15 -71v-29q0 -45 -15 -70.5t-71 -25.5q-81 0 -173.5 2t-207.5 4v-520q0 -90 -86 -90h-88q-51 0 -75.5 19.5t-24.5 70.5v1194q0 53 27.5 68.5t72.5 15.5h594q88 0 88 -84v-55z "></glyph><glyph glyph-name="G" unicode="G" d="M1130 119q0 -46 -19.5 -69t-68.5 -38q-69 -20 -158 -29.5t-165 -9.5q-139 0 -242 25q-135 33 -212 122t-106.5 222.5t-29.5 325.5q0 223 35.5 364t107 217t179.5 104.5t268 28.5q99 0 170 -3.5t133 -10.5q63 -7 83.5 -22.5t20.5 -49.5v-69q0 -58 -14.5 -78.5t-62.5 -20.5 q-19 0 -121.5 8.5t-167.5 8.5q-68 0 -128 -6.5t-95 -22.5q-57 -26 -84 -84.5t-34 -138t-7 -227.5q0 -100 5.5 -171.5t24.5 -129.5t57.5 -94.5t102.5 -49.5q62 -10 158 -10q32 0 96 12v381h-192q-56 0 -72.5 26.5t-16.5 69.5v29q0 45 16.5 70.5t72.5 25.5h378q88 0 88 -86 v-620z"></glyph><glyph glyph-name="H" unicode="H" d="M1202 90q0 -90 -88 -90h-86q-52 0 -75 19.5t-23 70.5v531q-74 -3 -248 -3t-248 3v-531q0 -90 -86 -90h-88q-51 0 -75.5 19.5t-24.5 70.5v1194q0 53 27.5 68.5t72.5 15.5h88q86 0 86 -84v-444q74 2 248 2t248 -2v444q0 53 26.5 68.5t71.5 15.5h86q88 0 88 -84v-1194z"></glyph><glyph glyph-name="I" unicode="I" d="M444 90q0 -90 -88 -90h-88q-52 0 -75 19.5t-23 70.5v1194q0 53 26.5 68.5t71.5 15.5h88q88 0 88 -84v-1194z"></glyph><glyph glyph-name="J" unicode="J" d="M604 664q0 -199 -6 -297q-7 -132 -60 -217t-151.5 -124.5t-247.5 -39.5q-121 0 -147 34q-13 17 -16 33t-3 56v55q0 31 19 50t51 19q17 0 51 -4t66 -4q67 0 98.5 15t44.5 45q16 33 21.5 98t5.5 256v498q-128 -4 -152 -4q-56 0 -72 26.5t-16 69.5v55q0 49 22.5 66.5 t65.5 17.5h340q86 0 86 -84v-620z"></glyph><glyph glyph-name="K" unicode="K" d="M1163 129q33 -31 33 -70q0 -26 -19.5 -42.5t-56.5 -16.5h-141q-39 0 -64.5 10.5t-56.5 42.5l-424 455v-418q0 -90 -86 -90h-88q-51 0 -75.5 19.5t-24.5 70.5v1194q0 53 27.5 68.5t72.5 15.5h88q86 0 86 -84v-467l422 496q27 32 51 43.5t64 11.5h104q38 0 57 -16.5 t19 -40.5q0 -31 -23 -54l-510 -573z"></glyph><glyph glyph-name="L" unicode="L" d="M922 84q0 -84 -88 -84h-574q-51 0 -75.5 19.5t-24.5 70.5v1194q0 53 27.5 68.5t72.5 15.5h88q86 0 86 -84v-1053q278 5 400 5q56 0 72 -26.5t16 -70.5v-55z"></glyph><glyph glyph-name="M" unicode="M" d="M1540 94v-14q0 -45 -25.5 -62.5t-74.5 -17.5h-86q-45 0 -65 22.5t-23 65.5l-54 834q-8 -22 -28 -83.5t-25 -74.5q-17 -48 -90.5 -259t-97.5 -272q-16 -40 -40.5 -59.5t-72.5 -19.5h-53q-47 0 -69.5 18t-41.5 61q-39 99 -192 531q-4 13 -23.5 74.5t-27.5 83.5l-54 -834 q-3 -45 -23 -66.5t-65 -21.5h-86q-48 0 -74 17.5t-26 62.5v14l104 1192q4 51 30 66.5t71 15.5h112q45 0 68.5 -15t36.5 -48q29 -73 59 -153t66.5 -182.5t83 -233.5t77.5 -218q39 106 82.5 227.5t66 185.5t72 197.5t66.5 176.5q15 34 38 48.5t67 14.5h112q45 0 71 -15.5 t30 -66.5z"></glyph><glyph glyph-name="N" unicode="N" d="M1264 90q0 -90 -86 -90h-64q-44 0 -68.5 7.5t-46.5 35.5q-67 92 -138.5 194.5t-141 204t-153.5 225.5t-142 207v-784q0 -90 -90 -90h-82q-52 0 -75 19.5t-23 70.5v1194q0 53 26.5 68.5t71.5 15.5h55q42 0 64 -8t41 -35q45 -60 109.5 -152t137.5 -199t165.5 -242 t168.5 -245v797q0 53 27.5 68.5t73.5 15.5h84q86 0 86 -84v-1194z"></glyph><glyph glyph-name="O" unicode="O" d="M1012 682q0 110 -9 203.5t-36 150.5q-61 131 -254 131t-254 -131q-27 -61 -36 -159t-9 -195q0 -253 45 -352q62 -133 254 -133t254 133q45 99 45 352zM1296 682q0 -372 -153 -553q-73 -87 -179 -129.5t-251 -42.5q-291 0 -432 172q-56 66 -90.5 153.5t-48 185 t-13.5 214.5q0 175 34 314.5t118 238.5q48 58 113.5 97t145 57t173.5 18q95 0 173 -18t141.5 -55.5t115.5 -98.5q153 -181 153 -553z"></glyph><glyph glyph-name="P" unicode="P" d="M823 905q0 185 -55 213q-31 17 -158 17h-4q-75 0 -172 -5v-454h232q103 0 133 39q16 23 20 68t4 122zM1096 889q0 -107 -17.5 -185t-56 -132.5t-102.5 -86.5q-40 -18 -77 -27t-87.5 -13.5t-128.5 -4.5h-193v-350q0 -90 -86 -90h-88q-51 0 -75.5 19.5t-24.5 70.5v1194 q0 53 27.5 68.5t72.5 15.5h379q164 0 227.5 -17.5t122.5 -78.5q107 -107 107 -383z"></glyph><glyph glyph-name="Q" unicode="Q" d="M1012 676q0 254 -45 356q-63 135 -254 135t-254 -135q-45 -102 -45 -356q0 -252 45 -354q62 -136 254 -136t254 136q45 102 45 354zM1296 676q0 -104 -10 -198t-40.5 -181t-90.5 -164q-61 -77 -135.5 -119t-169.5 -57q6 -21 22 -37q37 -39 132 -39q34 1 58 1.5t52 0.5 q37 0 52.5 -18.5t15.5 -81.5v-43q0 -55 -31 -75.5t-137 -20.5q-201 0 -312 73.5t-139 239.5q-186 37 -295 176q-61 79 -90.5 164.5t-39 174t-9.5 204.5q0 118 13 214.5t48 187.5t89 155q74 90 180 132t254 42q287 0 432 -174q83 -101 117 -241t34 -316z"></glyph><glyph glyph-name="R" unicode="R" d="M823 905q0 185 -55 213q-31 17 -154 17h-4q-79 0 -176 -5v-399h232q100 0 133 41q24 33 24 133zM1137 127q28 -33 28 -72q0 -55 -71 -55h-123q-41 0 -68.5 10.5t-56.5 44.5l-348 443h-64v-408q0 -90 -86 -90h-88q-51 0 -75.5 19.5t-24.5 70.5v1194q0 53 27.5 68.5 t72.5 15.5h379q164 0 227.5 -17.5t122.5 -78.5q107 -107 107 -383q0 -239 -135 -332q-56 -38 -138 -49z"></glyph><glyph glyph-name="S" unicode="S" d="M987 422q0 -93 -7.5 -167.5t-31.5 -119.5q-51 -96 -162 -124.5t-262 -28.5q-142 0 -301 14q-42 5 -65 13t-32 22t-9 37v69q0 58 15.5 78.5t62.5 20.5q64 0 164 -8.5t196 -8.5q75 0 107 8t44.5 35.5t12.5 89.5q0 108 -10 132.5t-62 45.5q-205 86 -258 109 q-119 52 -168 89.5t-68.5 100.5t-19.5 187q0 62 8.5 113t29.5 92.5t62 75t103 53.5q55 17 122.5 24.5t162.5 7.5q84 0 231 -10q63 -4 86 -20t23 -52v-67q0 -56 -15.5 -77t-64.5 -21q-30 0 -65.5 3t-100 6t-203.5 3q-74 0 -92.5 -27.5t-18.5 -103.5v-19q0 -42 4 -60.5 t17.5 -31t50.5 -28.5l77 -33l91 -39q162 -68 227.5 -107.5t92 -99.5t26.5 -176z"></glyph><glyph glyph-name="T" unicode="T" d="M1112 1229q0 -43 -16 -69.5t-72 -26.5q-125 0 -301 4v-1047q0 -90 -88 -90h-88q-52 0 -75 19.5t-23 70.5v1047q-178 -4 -304 -4q-55 0 -70.5 26.5t-15.5 69.5v55q0 48 22.5 66t63.5 18h879q88 0 88 -84v-55z"></glyph><glyph glyph-name="U" unicode="U" d="M1253 850q0 -210 -4.5 -311t-19.5 -191q-31 -178 -129 -270q-120 -109 -404 -109q-281 0 -401 109q-102 94 -131 270q-15 93 -19 192.5t-4 309.5v434q0 53 27 68.5t72 15.5h86q90 0 90 -84v-604q0 -161 9 -238.5t34 -132.5q18 -38 44.5 -58.5t71 -31t121.5 -10.5 q109 0 162 24t78 76q24 50 33.5 124t9.5 247v604q0 54 27.5 69t74.5 15h88q51 0 67.5 -21.5t16.5 -62.5v-434z"></glyph><glyph glyph-name="V" unicode="V" d="M1292 1319q0 -26 -14 -64l-420 -1167q-18 -48 -44 -70t-79 -22h-94q-52 0 -76.5 20.5t-44.5 71.5l-440 1188q-8 20 -8 31q0 61 73 61h125q44 0 65.5 -18t33.5 -54l323 -931l316 917q15 46 36.5 66t69.5 20h100q51 0 64.5 -11t13.5 -38z"></glyph><glyph glyph-name="W" unicode="W" d="M1681 1300q0 -6 -4 -30l-270 -1196q-8 -34 -20 -50t-30.5 -22t-49.5 -6h-133q-30 0 -49.5 9.5t-30 25t-19.5 43.5q-23 69 -54 171t-53 176t-42 142.5t-45 153.5q-25 -85 -48.5 -166.5t-41 -142.5t-50 -167.5t-53.5 -166.5q-12 -39 -34 -58.5t-68 -19.5h-131 q-45 0 -66.5 15.5t-32.5 62.5l-272 1196q-4 16 -4 26q0 39 23.5 55.5t78.5 16.5h103q46 0 63.5 -21.5t24.5 -62.5l176 -917q14 49 71 257t79 283t40 129q23 66 95 66h94q75 0 96 -66q11 -30 41 -133t78.5 -277t70.5 -251l177 909q7 43 24.5 63.5t61.5 20.5h102 q102 0 102 -68z"></glyph><glyph glyph-name="X" unicode="X" d="M1227 57q0 -57 -68 -57h-127q-22 0 -40.5 4t-29.5 10t-22 17.5t-27 34.5l-254 395l-270 -395q-25 -37 -47 -51.5t-63 -14.5h-103q-67 0 -67 57q0 35 30 78l379 539l-379 565q-24 36 -24 64q0 34 23 49.5t59 15.5h112q74 0 109 -55l262 -408l278 410q22 32 43.5 42.5 t73.5 10.5h76q76 0 76 -59q0 -33 -39 -92l-367 -523l375 -559q31 -49 31 -78z"></glyph><glyph glyph-name="Y" unicode="Y" d="M1190 1300q0 -34 -29 -79l-389 -691v-440q0 -90 -88 -90h-88q-52 0 -75 19.5t-23 70.5v424l-410 729q-20 35 -20 60q0 34 24 49.5t55 15.5h111q44 0 65 -14t37 -45l277 -502l283 504q16 31 37.5 44t64.5 13h90q38 0 58 -18.5t20 -49.5z"></glyph><glyph glyph-name="Z" unicode="Z" d="M1092 1315q0 -35 -31 -88l-615 -1010q420 19 545 19q56 0 71 -25.5t15 -71.5v-55q0 -84 -86 -84h-823q-36 0 -59 21t-23 57q0 40 35 98l586 965q-156 -4 -268.5 -6t-219.5 -2q-56 0 -72 26.5t-16 69.5v55q0 84 88 84h807q66 0 66 -53z"></glyph><glyph glyph-name="bracketleft" unicode="[" d="M743 -195q0 -86 -88 -86h-411q-42 0 -64 7t-33.5 27t-11.5 59v1749q0 50 22 69t68 19h430q88 0 88 -86v-41q0 -45 -17.5 -71t-70.5 -26q-38 0 -85.5 1.5t-107 5t-91.5 4.5v-1504q53 3 125.5 7t158.5 4q54 0 71 -26t17 -71v-41z"></glyph><glyph glyph-name="backslash" unicode="\" d="M731 76q8 -20 8 -37q0 -24 -13.5 -37t-47.5 -31l-49 -24q-25 -10 -37 -10q-42 0 -64 53l-561 1327q-8 20 -8 39q0 43 45 65l62 29q23 10 36 10h4q44 0 64 -49l557 -1321q0 -1 2 -7t2 -7z"></glyph><glyph glyph-name="bracketright" unicode="]" d="M526 -188q0 -57 -24 -75t-84 -18h-410q-88 0 -88 86v41q0 28 6 49t25 34.5t57 13.5q74 0 285 -11v1504q-32 -1 -91.5 -4.5t-108 -5t-85.5 -1.5q-53 0 -70.5 26t-17.5 71v41q0 86 88 86h428q47 0 68.5 -18.5t21.5 -69.5v-1749z"></glyph><glyph glyph-name="asciicircum" unicode="^" d="M969 741h-277l-178 336l-178 -336h-277l369 670h174z"></glyph><glyph glyph-name="underscore" unicode="_" d="M756 -389q0 -43 -17.5 -59.5t-76.5 -16.5h-572q-50 0 -70 14.5t-20 47.5v81q0 30 27 43t63 13h572q94 0 94 -56v-67z"></glyph><glyph glyph-name="grave" unicode="`" d="M475 1196q0 -41 -80 -41h-84q-27 0 -51 10q-30 14 -53 38t-88 106q-3 3 -33.5 37.5t-46 52t-27.5 35.5t-12 30q0 30 37 38.5t106 8.5h17h6q72 0 88 -12q20 -13 94.5 -110.5t110.5 -157.5q16 -28 16 -35z"></glyph><glyph glyph-name="a" unicode="a" d="M694 266v166q-70 4 -100 4q-105 0 -156 -10.5t-72.5 -39t-21.5 -85.5q0 -61 19.5 -99t56.5 -38q45 0 90 11t90.5 34t93.5 57zM950 88q0 -45 -17.5 -66.5t-64.5 -21.5h-114q-29 0 -44.5 17t-15.5 57q-62 -38 -106 -58t-93.5 -31.5t-103.5 -11.5q-293 0 -293 306 q0 163 89 233.5t245 87.5q41 5 66 8t63.5 5.5t82.5 2.5h22h26q0 110 -14 148q-19 49 -88 49q-123 0 -295 -43q-12 -2 -21.5 -4t-15.5 -2h-12q-60 0 -60 65v58q0 71 58 86q47 12 114 21t122.5 13.5t99.5 4.5q212 0 292 -94q47 -53 62.5 -117t15.5 -215v-498z"></glyph><glyph glyph-name="b" unicode="b" d="M758 510q0 119 -19 203q-11 48 -35 65t-90 17q-80 0 -211 -27v-561q124 -19 168 -19q75 0 113 22t51 64q23 77 23 236zM1024 506q0 -191 -45.5 -308.5t-145.5 -171t-266 -53.5q-67 0 -156 6.5t-171 18.5q-50 8 -74.5 28.5t-24.5 63.5v1231q0 50 21 69t69 19h93 q79 0 79 -88v-330q143 21 252 21q103 0 172 -28.5t113 -89t64 -155t20 -233.5z"></glyph><glyph glyph-name="c" unicode="c" d="M868 57q0 -39 -17.5 -53t-94.5 -22q-75 -9 -174 -9q-141 0 -230.5 23.5t-141 80t-73.5 155.5t-22 260t22 260t73 155t141 80.5t231 24.5q77 0 174 -11q51 -4 76 -12t30.5 -19.5t5.5 -37.5v-4v-4q0 -93 -22 -127q-18 -29 -51 -29q-11 0 -112.5 12.5t-162.5 12.5 q-67 0 -86.5 -19t-34.5 -78q-16 -71 -16 -204q0 -87 8 -197q5 -60 30.5 -81t98.5 -21q56 0 161 12t114 12q30 0 49 -20q8 -9 16 -50.5t8 -89.5z"></glyph><glyph glyph-name="d" unicode="d" d="M745 283v483q-106 27 -200 27q-54 0 -82 -17q-84 -50 -84 -332q0 -131 39 -194q39 -62 110 -62q47 0 106 25t111 70zM1008 92q0 -92 -82 -92h-95q-56 0 -75 47q-147 -74 -271 -74q-119 0 -203 60t-125.5 171.5t-41.5 264.5q0 273 108 407t330 134q79 0 192 -17v328 q0 50 21 69t70 19h90q43 0 62.5 -26.5t19.5 -61.5v-1229z"></glyph><glyph glyph-name="e" unicode="e" d="M709 588v39q0 102 -29.5 141t-128.5 39q-73 0 -111.5 -19t-52.5 -60.5t-14 -121.5v-18h336zM958 532q0 -53 -6.5 -80.5t-23.5 -35.5t-56 -8h-499v-29q0 -72 14 -118.5t53 -63.5q51 -23 123 -23q102 0 250 33q6 1 20.5 5t27.5 6.5t24 2.5q21 0 35 -19t20 -44q4 -19 4 -60 v-8q0 -40 -14.5 -61.5t-59.5 -28.5q-150 -27 -309 -27q-114 0 -198 25t-134 72q-62 57 -88 156.5t-26 258.5q0 139 18.5 234t63.5 158q48 68 135 101.5t219 33.5q125 0 205.5 -31t126.5 -96q43 -62 59 -150t16 -203z"></glyph><glyph glyph-name="f" unicode="f" d="M766 1343v-14q0 -94 -27 -127q-11 -14 -34 -14q-10 0 -58.5 9t-116.5 9q-60 0 -73 -20q-15 -23 -15 -123v-82h205q39 0 53.5 -11.5t14.5 -45.5v-82q0 -46 -16 -62t-58 -16h-199v-672q0 -48 -14.5 -70t-56.5 -22h-129q-35 0 -48.5 17.5t-13.5 62.5v684h-61q-49 0 -49 72 v88q0 33 13.5 45t45.5 12h51v82q0 76 6.5 119.5t17.5 70t29 52.5q50 68 128 94t225 26q114 0 147 -18t33 -64z"></glyph><glyph glyph-name="g" unicode="g" d="M729 213v578q-102 4 -162 4q-74 0 -103.5 -14t-45.5 -50q-17 -37 -28 -107t-11 -149q0 -75 12 -162q12 -85 36.5 -110t90.5 -25q98 0 211 35zM991 -94q0 -82 -8.5 -120t-34.5 -77q-33 -51 -88.5 -85t-128 -51t-160.5 -17q-102 0 -213 11.5t-170 26.5q-61 18 -61 95 q0 60 14 94q18 39 54 39q9 0 51 -10q88 -21 172 -31t168 -10q68 0 98.5 22.5t38.5 71.5q6 37 6 125v10q-145 -27 -237 -27q-136 0 -219.5 52t-121.5 161t-38 279q0 141 27.5 247.5t82.5 170.5q44 52 96.5 80t125 38.5t184.5 10.5q166 0 280 -8q48 -3 65 -24t17 -69v-1005z "></glyph><glyph glyph-name="h" unicode="h" d="M967 92q0 -46 -17.5 -69t-62.5 -23h-109q-73 0 -73 92v524v9q0 76 -2.5 109t-12.5 44q-13 17 -65 17q-118 0 -250 -95v-608q0 -46 -17.5 -69t-62.5 -23h-109q-73 0 -73 82v1239q0 50 21 69t69 19h92q44 0 62 -26t18 -62v-379q142 70 276 70q172 0 244 -85.5t72 -205.5 v-629z"></glyph><glyph glyph-name="i" unicode="i" d="M416 92q0 -92 -82 -92h-78q-59 0 -84 17.5t-25 74.5v799q0 51 21.5 70.5t69.5 19.5h96q42 0 62 -27.5t20 -62.5v-799zM416 1219q0 -93 -82 -93h-78q-60 0 -84.5 18t-24.5 75v71q0 51 21.5 70.5t69.5 19.5h96q42 0 62 -27.5t20 -62.5v-71z"></glyph><glyph glyph-name="j" unicode="j" d="M428 -14q0 -164 -16 -224q-22 -90 -112 -143t-206 -53q-51 0 -80.5 5.5t-44.5 25.5q-14 20 -14 73v54q0 40 19.5 61.5t45.5 21.5q15 0 50 -6t51 -6q24 0 31.5 20t7.5 83v993q0 52 21 71t69 19h96q44 0 63 -27t19 -63v-905zM428 1217q0 -48 -17.5 -69.5t-64.5 -21.5h-80 q-40 0 -62.5 6t-33 26.5t-10.5 58.5v71q0 52 21.5 72t68.5 20h96q44 0 63 -27.5t19 -64.5v-71z"></glyph><glyph glyph-name="k" unicode="k" d="M1038 55q0 -22 -20 -38.5t-55 -16.5h-134q-30 0 -48 11t-44 40l-334 402v-361q0 -92 -69 -92h-131q-34 0 -48 23.5t-14 68.5v1229q0 50 21 69t69 19h93q79 0 79 -88v-659l267 282q21 23 42.5 30t59.5 7h111q75 0 75 -55q0 -30 -49 -74l-311 -285l422 -473q18 -21 18 -39z "></glyph><glyph glyph-name="l" unicode="l" d="M406 92q0 -46 -17.5 -69t-62.5 -23h-74q-59 0 -84 17.5t-25 74.5v1229q0 50 21 69t69 19h93q44 0 62 -26t18 -62v-1229z"></glyph><glyph glyph-name="m" unicode="m" d="M1430 90q0 -46 -17 -68t-63 -22h-74q-42 0 -64 6t-33.5 26t-11.5 58v531q0 112 -10 143q-12 31 -35 31q-44 0 -92.5 -30.5t-111.5 -80.5v-594q0 -46 -17 -68t-63 -22h-74q-42 0 -64 6t-33.5 26t-11.5 58v531q0 112 -10 143q-12 31 -35 31q-44 0 -92.5 -30.5t-111.5 -80.5 v-594q0 -46 -17 -68t-63 -22h-105q-47 0 -62.5 20t-15.5 70v803q0 49 22 68.5t68 19.5h93q31 0 44 -12.5t25 -50.5q159 94 287 94q138 0 197 -111q74 48 152 79.5t163 31.5q121 0 178.5 -78t57.5 -209v-635z"></glyph><glyph glyph-name="n" unicode="n" d="M997 90q0 -46 -17.5 -68t-64.5 -22h-71q-42 0 -64 6t-33.5 26t-11.5 58v531q0 118 -14 145q-15 31 -64 31q-65 0 -121.5 -27.5t-129.5 -85.5v-594q0 -46 -17 -68t-63 -22h-74q-42 0 -64 6t-33.5 26t-11.5 58v803q0 49 22 68.5t68 19.5h93q32 0 46 -13.5t23 -49.5 q64 43 134 68.5t153 25.5q118 0 188 -41.5t98.5 -105.5t28.5 -138v-637z"></glyph><glyph glyph-name="o" unicode="o" d="M791 492q0 168 -37 237q-19 37 -52 51.5t-116 14.5q-82 0 -115.5 -14t-52.5 -52q-39 -70 -39 -237q0 -168 39 -238q20 -36 53 -50t115 -14q83 0 116 14.5t52 49.5q37 69 37 238zM1055 492q0 -136 -29.5 -233.5t-93.5 -166.5q-113 -119 -346 -119q-234 0 -346 119 q-64 67 -94.5 165.5t-30.5 234.5q0 137 30.5 235.5t94.5 165.5q112 119 346 119q115 0 201.5 -29t144.5 -90q66 -69 94.5 -166.5t28.5 -234.5z"></glyph><glyph glyph-name="p" unicode="p" d="M778 494q0 63 -6.5 132t-13.5 101q-16 68 -80 68q-53 0 -131 -33.5t-141 -73.5v-471q92 -27 190 -27q63 0 102.5 23.5t55.5 62.5t20 88t4 130zM1042 500q0 -77 -5 -139.5t-17.5 -105.5t-34.5 -85q-52 -97 -155.5 -147t-237.5 -50q-91 0 -186 21v-330q0 -46 -17.5 -69 t-62.5 -23h-74q-59 0 -84 17t-25 75v1229q0 50 21 69t69 19h93q36 0 49 -15t22 -53q87 47 162.5 73t151.5 26q138 0 217 -80q65 -67 89.5 -170.5t24.5 -261.5z"></glyph><glyph glyph-name="q" unicode="q" d="M729 279v497q-91 12 -184 12q-54 0 -81 -13t-42 -40q-43 -81 -43 -299q0 -124 20 -174q30 -72 123 -72q100 0 207 89zM991 -336q0 -46 -18 -69t-64 -23h-71q-59 0 -84 17t-25 75v365q-51 -29 -105 -42.5t-118 -13.5q-102 0 -177 31t-121.5 91.5t-69.5 152.5t-23 219 q0 139 25 237.5t83 172.5q42 54 87.5 83t107 40.5t155.5 11.5q153 0 340 -15q41 -3 59.5 -18t18.5 -55v-1260z"></glyph><glyph glyph-name="r" unicode="r" d="M764 864q0 -46 -15.5 -70t-60.5 -24q-64 0 -110 -9t-84 -26t-82 -45v-600q0 -45 -18 -67.5t-64 -22.5h-78q-42 0 -64 6t-33.5 26t-11.5 58v803q0 49 22 68.5t68 19.5h97q58 0 76 -72q60 35 91 50.5t81 30t96 14.5q36 0 63 -17.5t27 -52.5v-70z"></glyph><glyph glyph-name="s" unicode="s" d="M891 291q0 -127 -35 -194.5t-117 -94.5t-233 -27q-175 0 -293 15q-36 5 -46.5 20t-10.5 74v37q0 40 12 69q11 25 47 25q8 0 59 -6.5t110.5 -11t150.5 -4.5q63 0 82.5 14t19.5 61q0 56 -12 68q-14 14 -69 31t-141 45t-136 53q-54 26 -85.5 56.5t-46 73.5t-14.5 101 q0 158 72 230q51 51 138 66.5t255 15.5q100 0 152 -4q56 -3 79 -23t23 -78q0 -72 -8 -88q-21 -39 -68 -39q-11 0 -94.5 8.5t-175.5 8.5q-53 0 -78 -4.5t-33 -21t-8 -54.5q0 -28 10 -41q10 -12 56 -29.5t103 -34.5t99 -30q86 -29 136 -61t75 -84.5t25 -141.5z"></glyph><glyph glyph-name="t" unicode="t" d="M729 844q0 -50 -9.5 -64t-39.5 -14h-221v-412q0 -125 12 -149q10 -17 31 -17q26 0 86 15.5t82 15.5q29 0 42 -17.5t13 -39.5v-74q0 -56 -18 -76.5t-68 -25.5q-84 -8 -106.5 -9.5t-71.5 -1.5q-81 0 -132 16.5t-80 54t-40.5 97.5t-11.5 156v467h-58q-49 0 -49 59v88 q0 68 55 68h52v166q0 52 20.5 71t67.5 19h92q42 0 62 -27.5t20 -62.5v-166h200q40 0 55 -11.5t15 -54.5v-71z"></glyph><glyph glyph-name="u" unicode="u" d="M989 88q0 -49 -20.5 -68.5t-67.5 -19.5h-92q-53 0 -70 68q-144 -97 -288 -97q-119 0 -189 42.5t-98.5 106t-28.5 138.5v633q0 45 18.5 67.5t63.5 22.5h74q61 0 83.5 -16.5t22.5 -73.5v-529q0 -114 15 -141q17 -33 63 -33q65 0 117 25.5t135 87.5v590q0 45 18.5 67.5 t63.5 22.5h74q60 0 83 -16t23 -74v-803z"></glyph><glyph glyph-name="v" unicode="v" d="M981 928q0 -18 -6 -33l-303 -821q-14 -41 -37 -57.5t-66 -16.5h-84q-34 0 -52 5.5t-30.5 21t-23.5 47.5l-301 823q-6 18 -6 31q0 53 69 53h111q47 0 67.5 -13.5t32.5 -56.5l176 -583l177 581q7 27 19.5 43t32.5 22.5t50 6.5h104q70 0 70 -53z"></glyph><glyph glyph-name="w" unicode="w" d="M1399 918q0 -23 -4 -35l-254 -832q-10 -31 -28.5 -41t-53.5 -10h-80q-47 0 -64 16.5t-36 71.5l-134 389l-131 -389q-10 -34 -21.5 -53.5t-29.5 -27t-51 -7.5h-78q-36 0 -54.5 9t-29.5 42l-254 832q-4 12 -4 35q0 63 84 63h90q46 0 68.5 -15.5t32.5 -60.5l127 -559 l122 416q12 38 35 50.5t68 12.5h55q45 0 68.5 -12.5t34.5 -50.5l122 -416l127 559q11 46 34 61t67 15h90q82 0 82 -63z"></glyph><glyph glyph-name="x" unicode="x" d="M1030 55q0 -55 -72 -55h-127q-33 0 -49.5 7.5t-31.5 31.5l-187 283l-190 -289q-13 -21 -30 -27t-50 -6h-127q-70 0 -70 55q0 9 7 24t19 32.5t18.5 26t17.5 22.5l258 334l-238 321q-61 82 -61 111q0 55 71 55h99q51 0 73 -15t54 -65l149 -227l148 227q35 53 56.5 66.5 t76.5 13.5h94q70 0 70 -55q0 -28 -62 -111l-235 -321l276 -359q43 -54 43 -80z"></glyph><glyph glyph-name="y" unicode="y" d="M985 922q0 -16 -12 -48l-445 -1234q-13 -38 -34 -50t-66 -12h-102q-72 0 -72 53q0 17 14 50l154 362l-336 850q-8 16 -8 33q0 25 23 40t49 15h92q62 0 82.5 -11t31.5 -46l185 -580l174 557q15 47 39.5 63.5t72.5 16.5h88q30 0 50 -14t20 -45z"></glyph><glyph glyph-name="z" unicode="z" d="M905 86q0 -86 -88 -86h-631q-35 0 -57.5 20t-22.5 54v35q0 41 35 90l422 577q-254 -18 -340 -18q-56 0 -72 26.5t-16 69.5v41q0 86 88 86h598q33 0 51.5 -16.5t18.5 -49.5v-61q0 -36 -25 -70l-426 -577q238 16 377 16q56 0 72 -26t16 -70v-41z"></glyph><glyph glyph-name="braceleft" unicode="{" d="M831 -229q0 -56 -65 -56q-117 0 -225 33t-164 117q-28 44 -45 99t-24 119.5t-9.5 122.5t-5.5 118q-6 95 -20 146t-48.5 92.5t-122.5 117.5q88 76 122.5 117.5t48.5 92.5t20 146q3 60 5.5 119.5t9.5 123t24 118.5t45 98q37 57 103 90.5t141 46.5t145 13q65 0 65 -56v-57 q0 -24 -20 -37q-21 -15 -88.5 -29.5t-101 -26t-50.5 -42.5t-28.5 -128.5t-12.5 -226.5q-2 -93 -15 -149.5t-44.5 -100.5t-101.5 -112q70 -68 101.5 -112t44.5 -101t15 -150q1 -128 12.5 -224.5t28.5 -129.5q13 -24 40 -37t65.5 -21.5t79 -18t55.5 -21.5q20 -13 20 -37v-57z "></glyph><glyph glyph-name="bar" unicode="|" d="M291 -193q0 -92 -82 -92h-47q-42 0 -64 7t-33.5 27t-11.5 58v1749q0 50 22 69.5t68 19.5h66q43 0 62.5 -27t19.5 -62v-1749z"></glyph><glyph glyph-name="braceright" unicode="}" d="M692 680q-88 -77 -122 -118t-48 -92t-20 -146q-3 -60 -5 -118t-9.5 -122.5t-24 -119t-45.5 -99.5q-56 -84 -164 -117t-225 -33q-66 0 -66 56v57q0 24 21 37q20 15 89 30t101 26t49 42q38 67 41 354q2 77 9.5 123.5t25.5 83.5t48 73t79 83q-52 52 -80 85.5t-46.5 70.5 t-26 83.5t-9.5 122.5q-3 288 -41 355q-17 31 -49 42t-101 26t-89 30q-21 13 -21 37v57q0 56 66 56q70 0 145 -13t141 -46.5t103 -90.5q30 -44 46 -98.5t23.5 -118.5t9.5 -123t5 -119q5 -70 13.5 -115.5t25.5 -78t51 -68.5t100 -94z"></glyph><glyph glyph-name="asciitilde" unicode="~" d="M713 999q0 -25 -19 -63q-74 -154 -202 -154q-37 0 -70 8.5t-75.5 25t-63.5 23.5t-43 7q-15 0 -26 -7t-21.5 -18.5t-28.5 -29.5q-19 -17 -41 -17h-70q-53 0 -53 47q0 27 27 74q81 149 200 149q40 0 77 -10.5t98 -30.5t83 -20q14 0 31.5 20.5t34.5 32.5q15 11 33 11h73 q56 0 56 -48z"></glyph><glyph glyph-name="uni00A0" unicode=" "></glyph><glyph glyph-name="exclamdown" unicode="¡" d="M440 47v-4q0 -47 -22 -65.5t-68 -18.5h-90q-41 0 -61.5 26t-20.5 60v2l17 768q2 45 19.5 68.5t61.5 23.5h56q58 0 74.5 -16.5t17.5 -75.5zM477 1159l-141 -141q-14 -14 -31 -14t-33 14l-141 141q-14 14 -14 33q0 21 14 35l141 141q16 14 31 14q19 0 33 -14l141 -141 q15 -15 15 -33q0 -20 -15 -35z"></glyph><glyph glyph-name="cent" unicode="¢" d="M518 397v582q-65 0 -85.5 -15.5t-35.5 -78.5q-16 -68 -16 -199q0 -80 8 -190q4 -46 18 -66.5t35 -25.5t76 -7zM866 264q0 -38 -17 -51t-95 -23q-19 -2 -47 -3t-68 -3v-104q0 -34 -10.5 -47t-36.5 -13h-31q-26 0 -34.5 11.5t-8.5 48.5v104q-124 6 -199.5 31.5t-121 83 t-64 149t-18.5 238.5q0 148 18.5 240t64.5 150.5t121 84.5t199 31v100q0 36 11 46t44 10h19q47 0 47 -56v-100q26 -1 115 -10q76 -7 94 -19.5t18 -46.5v-4v-2q0 -92 -22 -127q-19 -27 -51 -27q-6 0 -55.5 6.5t-98.5 10.5v-570q41 4 71 8t51 6.5t32 2.5q32 0 49 -19 q8 -8 16 -49t8 -88z"></glyph><glyph glyph-name="sterling" unicode="£" d="M1073 1284q4 -4 4 -20q0 -37 -14 -56q-4 -31 -13.5 -49.5t-22 -24.5t-32.5 -6q-5 0 -58 10.5t-111 17.5t-132 7q-63 0 -95.5 -15t-45 -52.5t-12.5 -110.5q0 -30 5 -89t9 -89h229q95 0 95 -80v-31q0 -58 -18 -81t-77 -23h-219q0 -39 -9.5 -109.5t-25.5 -141.5t-34 -118 q34 -8 74.5 -18t73.5 -16.5t58 -6.5q70 0 130 19t113 44t65 25q57 0 57 -63v-70q0 -48 -14.5 -69t-59.5 -45q-121 -66 -258 -66q-52 0 -86.5 6t-103 23.5t-106 25.5t-77.5 8q-38 0 -102 -17t-80 -17q-37 0 -43 28l-20 95q-2 8 -2 22q0 48 30 78q26 24 123 43q29 138 29 270 q0 41 -2 70h-41q-50 0 -70 21t-20 67v47q0 80 78 80h43q-17 140 -17 219q0 69 22.5 139.5t63.5 118.5q50 61 127.5 86t196.5 25q115 0 313 -25q82 -11 82 -72v-14z"></glyph><glyph glyph-name="yen" unicode="¥" d="M1190 1300q0 -34 -29 -79l-336 -594h154q35 0 61.5 -18.5t26.5 -61.5v-23q0 -47 -18.5 -67.5t-69.5 -20.5h-207v-108h207q35 0 61.5 -18.5t26.5 -61.5v-23q0 -47 -18.5 -67.5t-69.5 -20.5h-207v-47q0 -90 -88 -90h-88q-52 0 -75 19.5t-23 70.5v47h-207q-35 0 -54 9.5 t-26.5 28.5t-7.5 50v23q0 43 27.5 61.5t60.5 18.5h207v108h-207q-35 0 -54 9.5t-26.5 28.5t-7.5 50v23q0 43 27.5 61.5t60.5 18.5h143l-346 616q-20 35 -20 60q0 34 24 49.5t55 15.5h111q44 0 65 -14t37 -45l277 -502l283 504q16 31 37.5 44t64.5 13h90q38 0 58 -18.5 t20 -49.5z"></glyph><glyph glyph-name="brokenbar" unicode="¦" d="M295 -68h-191v662h191v-662zM295 770h-191v662h191v-662z"></glyph><glyph glyph-name="section" unicode="§" d="M825 84q0 -49 -22.5 -66.5t-65.5 -17.5h-557q-42 0 -65 17.5t-23 66.5v45q0 45 16 70.5t72 25.5q14 0 142 -4v926q-128 -4 -142 -4q-56 0 -72 26.5t-16 69.5v45q0 49 22.5 66.5t65.5 17.5h557q45 0 66.5 -17.5t21.5 -66.5v-45q0 -43 -16 -69.5t-72 -26.5q-15 0 -141 4 v-926q126 4 141 4q56 0 72 -26t16 -70v-45z"></glyph><glyph glyph-name="dieresis" unicode="¨" d="M252 1198q0 -26 -17.5 -43.5t-41.5 -17.5h-134q-23 0 -41 18t-18 43v137q0 26 17 45t42 19h134q25 0 42 -18.5t17 -45.5v-137zM637 1198q0 -26 -17.5 -43.5t-41.5 -17.5h-134q-23 0 -41 18t-18 43v137q0 26 17 45t42 19h134q25 0 42 -18.5t17 -45.5v-137z"></glyph><glyph glyph-name="copyright" unicode="©" d="M1583 481q0 111 -16.5 206.5t-41.5 166t-61 141.5q-46 94 -170.5 146.5t-306.5 52.5q-120 0 -218.5 -23.5t-167.5 -68t-101 -105.5q-115 -213 -115 -508q0 -294 115 -507q32 -61 101 -105.5t168.5 -68t219.5 -23.5q117 0 214 23.5t163.5 68.5t97.5 107q119 226 119 497z M1841 500q0 -312 -97.5 -517.5t-292.5 -306t-486 -100.5q-414 0 -623 229q-78 86 -125.5 181.5t-70.5 217.5t-23 285q0 164 23 285.5t70.5 217.5t125.5 182q209 229 625 229q179 0 318.5 -37t242 -109t170.5 -178q37 -56 64 -122t44 -138.5t26 -152t9 -166.5zM1282 66 q0 -28 -18 -41.5t-64 -16.5q-91 -6 -164 -6q-103 0 -174 16q-98 23 -153.5 82t-77 147t-21.5 214q0 191 46 295.5t137.5 142t242.5 37.5q73 0 164 -6q46 -3 64 -16.5t18 -41.5v-43q0 -41 -12.5 -58t-50.5 -17q-18 0 -48 1.5t-60.5 3t-47.5 1.5q-115 0 -152 -17 q-47 -19 -63.5 -75t-18.5 -150q0 -27 -0.5 -46.5t-1.5 -43.5q0 -99 26 -166t101 -80q25 -4 107 -4h2q17 0 47.5 1.5t60.5 3t48 1.5q38 0 50.5 -17t12.5 -58v-43z"></glyph><glyph glyph-name="ordfeminine" unicode="ª" d="M496 942v90q-16 1 -29 1.5t-33 0.5q-63 0 -100.5 -6.5t-51.5 -23t-14 -48.5q0 -73 45 -73q83 0 183 59zM680 829q0 -59 -59 -59h-76q-34 0 -45 41q-108 -57 -205 -57q-101 0 -153 49t-52 141q0 137 113 182q44 18 112 24.5t181 8.5q0 55 -13 76q-17 25 -53 25 q-72 0 -213 -29q-12 -4 -18 -4q-24 0 -36.5 13.5t-12.5 31.5v37q0 47 45 57q113 25 227 25q59 0 116 -12.5t89 -47.5q31 -31 42 -71.5t11 -131.5v-299z"></glyph><glyph glyph-name="guillemotleft" unicode="«" d="M553 162q0 -51 -135 -51q-42 0 -62.5 8t-40.5 35q-20 29 -74.5 108.5t-92 139t-37.5 75.5q0 17 37.5 76.5t90 136t76.5 111.5q18 27 38 35t65 8q135 0 135 -51q0 -13 -10 -33l-170 -283l170 -282q10 -22 10 -33zM985 162q0 -19 -30.5 -35t-106.5 -16q-42 0 -63 8t-40 35 q-39 57 -84 123t-82.5 125t-37.5 75q0 17 37.5 76t95 143.5t71.5 104.5q18 26 38 34.5t65 8.5q77 0 107 -15.5t30 -35.5q0 -9 -12 -33l-170 -283l170 -282q4 -7 8 -16t4 -17z"></glyph><glyph glyph-name="uni00AD" unicode="­" d="M854 522q0 -43 -17 -59.5t-77 -16.5h-572q-50 0 -70 14.5t-20 47.5v94q0 29 28 42t62 13h572q94 0 94 -55v-80z"></glyph><glyph glyph-name="registered" unicode="®" d="M1583 481q0 111 -16.5 206.5t-41.5 166t-61 141.5q-46 94 -170.5 146.5t-306.5 52.5q-120 0 -218.5 -23.5t-167.5 -68t-101 -105.5q-49 -90 -82 -220t-33 -288q0 -157 33.5 -287.5t81.5 -219.5q52 -95 180 -146t311 -51q180 0 303 52t170 147q119 226 119 497zM1841 500 q0 -312 -97.5 -517.5t-292.5 -306t-486 -100.5q-414 0 -623 229q-78 86 -125.5 181.5t-70.5 217.5t-23 285q0 164 23 285.5t70.5 217.5t125.5 182q209 229 625 229q174 0 317.5 -37.5t246 -109t171.5 -179.5q139 -220 139 -577zM1118 631q0 115 -33 131q-14 8 -110 8h-49 q-34 0 -47 -8.5t-13 -30.5v-201h152q69 0 86 23q14 20 14 78zM1354 133q22 -26 22 -53q0 -45 -59 -45h-86q-32 0 -54 8t-42 31l-238 284h-31v-256q0 -67 -71 -67h-62q-41 0 -59.5 14t-18.5 53v777q0 42 21.5 53.5t56.5 11.5h266q116 0 163 -11.5t89 -53.5q78 -75 78 -258 q0 -218 -182 -254z"></glyph><glyph glyph-name="uni00AF" unicode="¯" d="M756 1710q0 -43 -17.5 -59.5t-76.5 -16.5h-572q-50 0 -70 14.5t-20 47.5v81q0 30 27 43t63 13h572q94 0 94 -56v-67z"></glyph><glyph glyph-name="degree" unicode="°" d="M530 1178q0 52 -34 87t-86 35q-50 0 -83.5 -36t-33.5 -86q0 -51 35 -87t82 -36q51 0 85.5 35.5t34.5 87.5zM672 1178q0 -73 -35 -136.5t-96 -100t-131 -36.5t-131.5 37t-96.5 100t-35 136q0 75 35 138t95.5 98.5t132.5 35.5q71 0 131.5 -36.5t95.5 -100.5t35 -135z"></glyph><glyph glyph-name="plusminus" unicode="±" d="M1014 -106h-903v176h903v-176zM1014 571h-359v-348h-186v348h-358v179h358v348h186v-348h359v-179z"></glyph><glyph glyph-name="acute" unicode="´" d="M475 1464q0 -13 -22 -43q-48 -56 -101 -118q-100 -121 -133 -136q-30 -12 -57 -12h-68q-48 0 -71 6.5t-23 34.5q0 7 16 35q40 64 114 159.5t91 108.5q15 12 92 12q105 0 133.5 -12t28.5 -35z"></glyph><glyph glyph-name="paragraph" unicode="¶" d="M1432 -295q0 -58 -19.5 -82t-77.5 -24h-280v1835h-189v-1835h-282q-51 0 -71.5 21t-20.5 67v45q0 42 28.5 62t63.5 20h67v786q-101 0 -174 12.5t-147 55.5q-96 54 -149.5 173.5t-53.5 239.5q0 121 33.5 242.5t103.5 187.5q49 47 101 70t134.5 31t231.5 8h604q97 0 97 -80 v-29q0 -58 -19 -82t-78 -24h-65v-1591h65q97 0 97 -82v-27z"></glyph><glyph glyph-name="uni00B7" unicode="·" d="M469 649l-141 -141q-16 -14 -31 -14q-19 0 -33 14l-141 141q-14 14 -14 33q0 21 14 35l141 141q14 14 31 14t33 -14l141 -141q14 -14 14 -33q0 -21 -14 -35z"></glyph><glyph glyph-name="cedilla" unicode="¸" d="M385 -43q0 -18 -16 -39l-129 -170q-22 -30 -41 -41.5t-54 -11.5h-79q-41 0 -53.5 12t-12.5 31v4q0 14 8 22q6 19 65 83t97 102q31 34 43 42.5t31 8.5h102q39 0 39 -43z"></glyph><glyph glyph-name="ordmasculine" unicode="º" d="M551 1067q0 102 -27 143q-12 21 -32 28t-78 7t-78.5 -7.5t-32.5 -27.5q-11 -18 -16.5 -55t-5.5 -88q0 -103 22 -139q12 -21 33.5 -29t77.5 -8q57 0 78.5 8t33.5 29q25 38 25 139zM739 1067q0 -82 -20 -140.5t-64 -99.5q-81 -75 -241 -75q-159 0 -240 75q-84 80 -84 240 q0 161 84 244q78 75 240 75q163 0 241 -75q84 -81 84 -244z"></glyph><glyph glyph-name="guillemotright" unicode="»" d="M532 477q0 -12 -22.5 -50t-50.5 -80.5t-65.5 -97.5t-65.5 -95q-18 -27 -39 -35t-64 -8q-75 0 -106 16t-31 35q0 10 3 15.5t9 17.5l170 282l-170 283q-12 24 -12 33q0 19 30.5 35t106.5 16q46 0 66 -8.5t37 -34.5q24 -35 76.5 -111.5t90 -136t37.5 -76.5zM963 477 q0 -12 -25 -54.5t-51 -80.5t-63.5 -93t-65.5 -95q-18 -27 -39 -35t-64 -8q-135 0 -135 51q0 11 10 33l170 282l-170 283q-10 20 -10 33q0 51 135 51q46 0 66 -8.5t37 -34.5q24 -35 77 -112t90.5 -136t37.5 -76z"></glyph><glyph glyph-name="onequarter" unicode="¼" d="M1315 1358q0 -8 -2.5 -15.5t-5.5 -13.5l-746 -1376q-9 -17 -24 -26t-33 -9q-6 0 -12 0.5t-11 3.5l-80 47q-11 6 -14.5 18.5t-3.5 24.5q0 17 6 29l748 1376q9 16 22.5 25.5t32.5 9.5q12 0 25.5 -5.5t27 -14t26 -17t23.5 -14.5t16 -18.5t5 -24.5zM446 735q0 -65 -67 -65 h-37q-18 0 -33 2.5t-26 9.5t-17 19.5t-6 33.5v463q-9 -3 -26 -9.5t-25 -6.5q-19 0 -31 8.5t-19 22t-9.5 30t-2.5 31.5q0 23 15.5 35t34.5 20q19 9 42 18t47.5 17t48 13t44.5 5q29 0 48 -18t19 -47v-582zM1538 66q0 -66 -65 -66h-23q-35 0 -57.5 12t-22.5 54v98h-246 q-21 0 -33 7.5t-19 20t-11 28t-8 30.5q-2 6 -3 12t-1 12q0 14 5 25t13 20l291 363q11 12 24.5 21.5t30.5 9.5h60q30 0 47.5 -18.5t17.5 -47.5v-332q21 0 37.5 -2t28 -9t18 -20.5t6.5 -37.5q0 -27 -5 -43t-15.5 -25t-27.5 -11.5t-42 -2.5v-98zM1370 469l-131 -162 q32 2 65.5 2t65.5 2v158z"></glyph><glyph glyph-name="onehalf" unicode="½" d="M1315 1358q0 -8 -2.5 -15.5t-5.5 -13.5l-746 -1376q-9 -17 -24 -26t-33 -9q-6 0 -12 0.5t-11 3.5l-80 47q-11 6 -14.5 18.5t-3.5 24.5q0 17 6 29l748 1376q9 16 22.5 25.5t32.5 9.5q12 0 25.5 -5.5t27 -14t26 -17t23.5 -14.5t16 -18.5t5 -24.5zM446 735q0 -65 -67 -65 h-37q-18 0 -33 2.5t-26 9.5t-17 19.5t-6 33.5v463q-9 -3 -26 -9.5t-25 -6.5q-19 0 -31 8.5t-19 22t-9.5 30t-2.5 31.5q0 23 15.5 35t34.5 20q19 9 42 18t47.5 17t48 13t44.5 5q29 0 48 -18t19 -47v-582zM1632 63q0 -34 -20 -48.5t-51 -14.5h-379q-26 0 -40 7.5t-20 21t-7 31 t-1 38.5q0 17 6.5 31.5t17 28t22.5 25t24 22.5q16 16 41.5 39t53.5 50t56.5 57t51 59.5t37 57t14.5 50.5q0 28 -11.5 38.5t-42.5 10.5q-26 0 -52.5 -1.5t-51.5 -6.5q-15 -3 -29.5 -6.5t-29.5 -3.5q-21 0 -34.5 10t-21 25t-10 33.5t-2.5 35.5q0 28 20.5 41.5t45.5 18.5 q82 12 165 12q48 0 92 -9.5t77.5 -31.5t54 -58.5t20.5 -90.5q0 -62 -23.5 -115t-60.5 -99.5t-82 -87t-88 -77.5q47 2 93.5 3t93.5 1q25 0 39.5 -7.5t21.5 -20t8.5 -30.5t1.5 -39z"></glyph><glyph glyph-name="threequarters" unicode="¾" d="M1356 1358q0 -8 -2.5 -15.5t-5.5 -13.5l-746 -1376q-9 -17 -24 -26t-33 -9q-6 0 -12 0.5t-11 3.5l-80 47q-11 6 -14.5 18.5t-3.5 24.5q0 17 6 29l748 1376q9 16 22.5 25.5t32.5 9.5q12 0 25.5 -5.5t27 -14t26 -17t23.5 -14.5t16 -18.5t5 -24.5zM614 895q0 -64 -18.5 -109 t-52.5 -73.5t-82.5 -42t-108.5 -13.5q-13 0 -37.5 1.5t-53 5t-58.5 10t-54 16.5t-39.5 23.5t-15.5 31.5q0 15 4.5 34t14 35.5t23.5 28t32 11.5q6 0 11 -1t11 -3q42 -12 82.5 -22.5t85.5 -10.5q22 0 36 4t21.5 13t10 23.5t2.5 35.5q0 16 -2.5 26t-8.5 16t-16.5 9.5t-25.5 5.5 q-31 5 -61.5 4.5t-61.5 -0.5q-33 0 -50.5 5t-25.5 17t-9 31t-1 48q0 26 14 38t34.5 15.5t43 2.5t39.5 -1q29 0 49 0.5t32 7.5t17.5 23t5.5 47q0 20 -4 30.5t-13 15.5t-22.5 6t-31.5 1q-25 0 -48.5 -2.5t-48.5 -5.5q-9 -2 -20 -4t-20 -2q-21 0 -32 9t-16 22.5t-7 29.5t-5 31 q-2 5 -2 8v8q0 25 24.5 38t57 17.5t65 4.5h48.5q52 0 99 -8.5t83 -30.5t57 -60.5t21 -99.5q0 -38 -9.5 -73t-35.5 -64q44 -29 58.5 -71t14.5 -93zM1538 66q0 -66 -65 -66h-23q-35 0 -57.5 12t-22.5 54v98h-246q-21 0 -33 7.5t-19 20t-11 28t-8 30.5q-2 6 -3 12t-1 12 q0 14 5 25t13 20l291 363q11 12 24.5 21.5t30.5 9.5h60q30 0 47.5 -18.5t17.5 -47.5v-332q21 0 37.5 -2t28 -9t18 -20.5t6.5 -37.5q0 -27 -5 -43t-15.5 -25t-27.5 -11.5t-42 -2.5v-98zM1370 469l-131 -162q32 2 65.5 2t65.5 2v158z"></glyph><glyph glyph-name="questiondown" unicode="¿" d="M889 59q1 -4 1.5 -7t0.5 -7q0 -49 -72 -61q-162 -25 -311 -25q-133 0 -220 33.5t-132 107t-45 189.5q0 77 29 137.5t81 116.5q29 30 61 59t72 66t64 61q38 39 51.5 67t13.5 83q0 32 14.5 44.5t59.5 12.5h74q50 0 64 -17.5t14 -66.5v-51q0 -72 -43 -129t-122 -126.5 t-122 -124t-43 -120.5q0 -63 31 -92t108 -29q56 0 112.5 8.5t143.5 24.5q29 6 45 6q43 0 49 -35zM752 1188l-142 -141q-13 -15 -30 -15q-20 0 -33 15l-141 141q-15 13 -15 33q0 21 15 34l141 142q14 14 31 14q18 0 32 -14l142 -142q14 -14 14 -32q0 -21 -14 -35z"></glyph><glyph glyph-name="Agrave" unicode="À" d="M799 539l-164 483l-164 -483q38 1 70.5 1.5t91.5 0.5q58 0 91.5 -0.5t74.5 -1.5zM1249 61q0 -61 -73 -61h-113q-43 0 -63.5 18t-32.5 54l-90 256q-89 -2 -244 -2h-75.5t-85 0.5t-75.5 1.5l-82 -242q-16 -48 -36 -67t-68 -19h-94q-48 0 -64 11.5t-16 37.5q0 21 16 64 l420 1171q20 52 43.5 72t77.5 20h84q55 0 79 -20t42 -70l442 -1194q8 -20 8 -31zM858 1561q0 -41 -80 -41h-84q-27 0 -51 10q-30 14 -53 38t-88 106q-3 3 -33.5 37.5t-46 52t-27.5 35.5t-12 30q0 30 37 38.5t106 8.5h17h6q72 0 88 -12q20 -13 94.5 -110.5t110.5 -157.5 q16 -28 16 -35z"></glyph><glyph glyph-name="Aacute" unicode="Á" d="M799 539l-164 483l-164 -483q38 1 70.5 1.5t91.5 0.5q58 0 91.5 -0.5t74.5 -1.5zM1249 61q0 -61 -73 -61h-113q-43 0 -63.5 18t-32.5 54l-90 256q-89 -2 -244 -2h-75.5t-85 0.5t-75.5 1.5l-82 -242q-16 -48 -36 -67t-68 -19h-94q-48 0 -64 11.5t-16 37.5q0 21 16 64 l420 1171q20 52 43.5 72t77.5 20h84q55 0 79 -20t42 -70l442 -1194q8 -20 8 -31zM928 1827q0 -13 -22 -43q-48 -56 -101 -118q-100 -121 -133 -136q-30 -12 -57 -12h-68q-48 0 -71 6.5t-23 34.5q0 7 16 35q40 64 114 159.5t91 108.5q15 12 92 12q105 0 133.5 -12t28.5 -35z "></glyph><glyph glyph-name="Acircumflex" unicode="Â" d="M799 539l-164 483l-164 -483q38 1 70.5 1.5t91.5 0.5q58 0 91.5 -0.5t74.5 -1.5zM1249 61q0 -61 -73 -61h-113q-43 0 -63.5 18t-32.5 54l-90 256q-89 -2 -244 -2h-75.5t-85 0.5t-75.5 1.5l-82 -242q-16 -48 -36 -67t-68 -19h-94q-48 0 -64 11.5t-16 37.5q0 21 16 64 l420 1171q20 52 43.5 72t77.5 20h84q55 0 79 -20t42 -70l442 -1194q8 -20 8 -31zM963 1567q0 -15 -32.5 -30t-104.5 -15q-32 0 -47 6q-11 4 -21.5 14.5t-24 31t-28.5 42.5q-15 23 -63 86q-45 -57 -64 -86q-33 -50 -44.5 -65.5t-29.5 -22.5q-15 -6 -47 -6q-71 0 -104 15 t-33 30q0 16 14 37l146 201q39 54 59 69q11 11 28.5 14t74.5 3q84 0 102 -17q20 -15 59 -69l146 -201q14 -21 14 -37z"></glyph><glyph glyph-name="Atilde" unicode="Ã" d="M799 539l-164 483l-164 -483q38 1 70.5 1.5t91.5 0.5q58 0 91.5 -0.5t74.5 -1.5zM1249 61q0 -61 -73 -61h-113q-43 0 -63.5 18t-32.5 54l-90 256q-89 -2 -244 -2h-75.5t-85 0.5t-75.5 1.5l-82 -242q-16 -48 -36 -67t-68 -19h-94q-48 0 -64 11.5t-16 37.5q0 21 16 64 l420 1171q20 52 43.5 72t77.5 20h84q55 0 79 -20t42 -70l442 -1194q8 -20 8 -31zM1008 1768q0 -20 -21 -64q-72 -151 -202 -151q-34 0 -61 7t-73 23.5t-71 24.5t-47 8q-20 0 -25.5 -4.5t-20 -21t-34.5 -31.5t-58 -15h-67q-35 0 -35 35t29 84q81 150 198 150q33 0 67.5 -8 t74 -21.5t69 -23t47.5 -9.5q23 0 45 24t33 32t33 8h61q58 0 58 -47z"></glyph><glyph glyph-name="Adieresis" unicode="Ä" d="M799 539l-164 483l-164 -483q38 1 70.5 1.5t91.5 0.5q58 0 91.5 -0.5t74.5 -1.5zM1249 61q0 -61 -73 -61h-113q-43 0 -63.5 18t-32.5 54l-90 256q-89 -2 -244 -2h-75.5t-85 0.5t-75.5 1.5l-82 -242q-16 -48 -36 -67t-68 -19h-94q-48 0 -64 11.5t-16 37.5q0 21 16 64 l420 1171q20 52 43.5 72t77.5 20h84q55 0 79 -20t42 -70l442 -1194q8 -20 8 -31zM580 1609q0 -26 -17.5 -43.5t-41.5 -17.5h-134q-23 0 -41 18t-18 43v137q0 26 17 45t42 19h134q25 0 42 -18.5t17 -45.5v-137zM965 1609q0 -26 -17.5 -43.5t-41.5 -17.5h-134q-23 0 -41 18 t-18 43v137q0 26 17 45t42 19h134q25 0 42 -18.5t17 -45.5v-137z"></glyph><glyph glyph-name="Aring" unicode="Å" d="M799 539l-164 483l-164 -483q38 1 70.5 1.5t91.5 0.5q58 0 91.5 -0.5t74.5 -1.5zM1249 61q0 -61 -73 -61h-113q-43 0 -63.5 18t-32.5 54l-90 256q-89 -2 -244 -2h-75.5t-85 0.5t-75.5 1.5l-82 -242q-16 -48 -36 -67t-68 -19h-94q-48 0 -64 11.5t-16 37.5q0 21 16 64 l420 1171q20 52 43.5 72t77.5 20h84q55 0 79 -20t42 -70l442 -1194q8 -20 8 -31zM721 1757q0 34 -23 58t-57 24q-33 0 -55.5 -24.5t-22.5 -57.5q0 -32 23 -56t55 -24q33 0 56.5 24.5t23.5 55.5zM824 1757q0 -79 -53.5 -133.5t-129.5 -54.5q-72 0 -127 56t-55 132 q0 78 53.5 133.5t128.5 55.5q77 0 130 -55t53 -134z"></glyph><glyph glyph-name="AE" unicode="Æ" d="M924 668v471h-56q-27 0 -36 -6.5t-21 -32.5l-209 -432h322zM1743 84q0 -84 -86 -84h-633q-53 0 -76.5 19.5t-23.5 70.5v365h-426l-179 -373q-22 -45 -43 -63.5t-57 -18.5h-94q-40 0 -64 19.5t-24 48.5q0 22 22 67l494 1012q46 93 75 136.5t68 64t99 20.5h862q86 0 86 -84 v-55q0 -45 -15 -70.5t-71 -25.5q-276 0 -461 6v-320q170 6 414 6q56 0 72 -26t16 -70v-29q0 -43 -16 -69.5t-72 -26.5q-188 0 -414 8v-383q215 7 461 7q56 0 71 -25.5t15 -71.5v-55z"></glyph><glyph glyph-name="Ccedilla" unicode="Ç" d="M1059 57q0 -34 -22.5 -49.5t-84.5 -19.5q-33 -2 -83 -5.5t-89 -5.5q-3 -16 -12 -28l-133 -178q-24 -31 -42.5 -42.5t-53.5 -11.5h-84q-45 0 -56.5 12.5t-11.5 34.5q0 25 27 56l155 166q-79 11 -125 26q-123 38 -192 125t-96 218.5t-27 312.5q0 223 35.5 364t107 217 t179.5 104.5t268 28.5q86 0 233 -10q63 -4 85 -20t22 -52v-67q0 -57 -14.5 -77.5t-63.5 -20.5q-16 0 -84 5t-137 5q-68 0 -128 -6.5t-95 -22.5q-57 -26 -84 -84.5t-34 -138t-7 -227.5q0 -140 11 -225.5t52.5 -143.5t126.5 -74q49 -8 158 -8q42 0 109.5 5t111.5 5 q49 0 63.5 -20t14.5 -78v-70z"></glyph><glyph glyph-name="Egrave" unicode="È" d="M981 84q0 -84 -88 -84h-633q-51 0 -75.5 19.5t-24.5 70.5v1194q0 53 27.5 68.5t72.5 15.5h633q45 0 66.5 -17.5t21.5 -66.5v-55q0 -43 -16 -69.5t-72 -26.5q-274 0 -459 6v-320q76 2 157.5 3.5t115 2t141.5 0.5q56 0 72 -26t16 -70v-29q0 -43 -16 -69.5t-72 -26.5 q-90 0 -190 2t-224 4v-381q215 7 459 7q56 0 72 -26.5t16 -70.5v-55zM741 1561q0 -41 -80 -41h-84q-27 0 -51 10q-30 14 -53 38t-88 106q-3 3 -33.5 37.5t-46 52t-27.5 35.5t-12 30q0 30 37 38.5t106 8.5h17h6q72 0 88 -12q20 -13 94.5 -110.5t110.5 -157.5q16 -28 16 -35z "></glyph><glyph glyph-name="Eacute" unicode="É" d="M981 84q0 -84 -88 -84h-633q-51 0 -75.5 19.5t-24.5 70.5v1194q0 53 27.5 68.5t72.5 15.5h633q45 0 66.5 -17.5t21.5 -66.5v-55q0 -43 -16 -69.5t-72 -26.5q-274 0 -459 6v-320q76 2 157.5 3.5t115 2t141.5 0.5q56 0 72 -26t16 -70v-29q0 -43 -16 -69.5t-72 -26.5 q-90 0 -190 2t-224 4v-381q215 7 459 7q56 0 72 -26.5t16 -70.5v-55zM864 1827q0 -13 -22 -43q-48 -56 -101 -118q-100 -121 -133 -136q-30 -12 -57 -12h-68q-48 0 -71 6.5t-23 34.5q0 7 16 35q40 64 114 159.5t91 108.5q15 12 92 12q105 0 133.5 -12t28.5 -35z"></glyph><glyph glyph-name="Ecircumflex" unicode="Ê" d="M981 84q0 -84 -88 -84h-633q-51 0 -75.5 19.5t-24.5 70.5v1194q0 53 27.5 68.5t72.5 15.5h633q45 0 66.5 -17.5t21.5 -66.5v-55q0 -43 -16 -69.5t-72 -26.5q-274 0 -459 6v-320q76 2 157.5 3.5t115 2t141.5 0.5q56 0 72 -26t16 -70v-29q0 -43 -16 -69.5t-72 -26.5 q-90 0 -190 2t-224 4v-381q215 7 459 7q56 0 72 -26.5t16 -70.5v-55zM899 1567q0 -15 -32.5 -30t-104.5 -15q-32 0 -47 6q-11 4 -21.5 14.5t-24 31t-28.5 42.5q-15 23 -63 86q-45 -57 -64 -86q-33 -50 -44.5 -65.5t-29.5 -22.5q-15 -6 -47 -6q-71 0 -104 15t-33 30 q0 16 14 37l146 201q39 54 59 69q11 11 28.5 14t74.5 3q84 0 102 -17q20 -15 59 -69l146 -201q14 -21 14 -37z"></glyph><glyph glyph-name="Edieresis" unicode="Ë" d="M981 84q0 -84 -88 -84h-633q-51 0 -75.5 19.5t-24.5 70.5v1194q0 53 27.5 68.5t72.5 15.5h633q45 0 66.5 -17.5t21.5 -66.5v-55q0 -43 -16 -69.5t-72 -26.5q-274 0 -459 6v-320q76 2 157.5 3.5t115 2t141.5 0.5q56 0 72 -26t16 -70v-29q0 -43 -16 -69.5t-72 -26.5 q-90 0 -190 2t-224 4v-381q215 7 459 7q56 0 72 -26.5t16 -70.5v-55zM508 1609q0 -26 -17.5 -43.5t-41.5 -17.5h-134q-23 0 -41 18t-18 43v137q0 26 17 45t42 19h134q25 0 42 -18.5t17 -45.5v-137zM893 1609q0 -26 -17.5 -43.5t-41.5 -17.5h-134q-23 0 -41 18t-18 43v137 q0 26 17 45t42 19h134q25 0 42 -18.5t17 -45.5v-137z"></glyph><glyph glyph-name="Igrave" unicode="Ì" d="M444 90q0 -90 -88 -90h-88q-52 0 -75 19.5t-23 70.5v1194q0 53 26.5 68.5t71.5 15.5h88q88 0 88 -84v-1194zM544 1561q0 -41 -80 -41h-84q-27 0 -51 10q-30 14 -53 38t-88 106q-3 3 -33.5 37.5t-46 52t-27.5 35.5t-12 30q0 30 37 38.5t106 8.5h17h6q72 0 88 -12 q20 -13 94.5 -110.5t110.5 -157.5q16 -28 16 -35z"></glyph><glyph glyph-name="Iacute" unicode="Í" d="M444 90q0 -90 -88 -90h-88q-52 0 -75 19.5t-23 70.5v1194q0 53 26.5 68.5t71.5 15.5h88q88 0 88 -84v-1194zM544 1827q0 -13 -22 -43q-48 -56 -101 -118q-100 -121 -133 -136q-30 -12 -57 -12h-68q-48 0 -71 6.5t-23 34.5q0 7 16 35q40 64 114 159.5t91 108.5 q15 12 92 12q105 0 133.5 -12t28.5 -35z"></glyph><glyph glyph-name="Icircumflex" unicode="Î" d="M444 90q0 -90 -88 -90h-88q-52 0 -75 19.5t-23 70.5v1194q0 53 26.5 68.5t71.5 15.5h88q88 0 88 -84v-1194zM628 1567q0 -15 -32.5 -30t-104.5 -15q-32 0 -47 6q-11 4 -21.5 14.5t-24 31t-28.5 42.5q-15 23 -63 86q-45 -57 -64 -86q-33 -50 -44.5 -65.5t-29.5 -22.5 q-15 -6 -47 -6q-71 0 -104 15t-33 30q0 16 14 37l146 201q39 54 59 69q11 11 28.5 14t74.5 3q84 0 102 -17q20 -15 59 -69l146 -201q14 -21 14 -37z"></glyph><glyph glyph-name="Idieresis" unicode="Ï" d="M444 90q0 -90 -88 -90h-88q-52 0 -75 19.5t-23 70.5v1194q0 53 26.5 68.5t71.5 15.5h88q88 0 88 -84v-1194zM240 1609q0 -26 -17.5 -43.5t-41.5 -17.5h-134q-23 0 -41 18t-18 43v137q0 26 17 45t42 19h134q25 0 42 -18.5t17 -45.5v-137zM625 1609q0 -26 -17.5 -43.5 t-41.5 -17.5h-134q-23 0 -41 18t-18 43v137q0 26 17 45t42 19h134q25 0 42 -18.5t17 -45.5v-137z"></glyph><glyph glyph-name="Eth" unicode="Ð" d="M977 666v18q0 127 -6.5 201t-35 133t-85.5 84q-34 15 -94.5 21.5t-128.5 6.5q-51 0 -66.5 -0.5t-35.5 -2t-40 -3.5v-293h179q47 0 69.5 -18t22.5 -61v-37q0 -58 -17 -81.5t-75 -23.5h-179v-366q27 -2 59.5 -4t82.5 -2q83 0 147 10q86 15 130 62t58.5 129.5t14.5 226.5z M1260 670q0 -130 -13 -230t-48.5 -183.5t-105 -144.5t-180.5 -87q-67 -15 -130 -20t-115 -5h-359q-52 0 -75 19.5t-23 70.5v520h-41q-50 0 -70 20t-20 66v56q0 41 27 60t63 19h41v453q0 53 26.5 68.5t71.5 15.5h359q218 0 342 -51.5t187 -201.5t63 -445z"></glyph><glyph glyph-name="Eth" unicode="Đ" d="M977 666v18q0 127 -6.5 201t-35 133t-85.5 84q-34 15 -94.5 21.5t-128.5 6.5q-51 0 -66.5 -0.5t-35.5 -2t-40 -3.5v-293h179q47 0 69.5 -18t22.5 -61v-37q0 -58 -17 -81.5t-75 -23.5h-179v-366q27 -2 59.5 -4t82.5 -2q83 0 147 10q86 15 130 62t58.5 129.5t14.5 226.5z M1260 670q0 -130 -13 -230t-48.5 -183.5t-105 -144.5t-180.5 -87q-67 -15 -130 -20t-115 -5h-359q-52 0 -75 19.5t-23 70.5v520h-41q-50 0 -70 20t-20 66v56q0 41 27 60t63 19h41v453q0 53 26.5 68.5t71.5 15.5h359q218 0 342 -51.5t187 -201.5t63 -445z"></glyph><glyph glyph-name="Ntilde" unicode="Ñ" d="M1264 90q0 -90 -86 -90h-64q-44 0 -68.5 7.5t-46.5 35.5q-67 92 -138.5 194.5t-141 204t-153.5 225.5t-142 207v-784q0 -90 -90 -90h-82q-52 0 -75 19.5t-23 70.5v1194q0 53 26.5 68.5t71.5 15.5h55q42 0 64 -8t41 -35q45 -60 109.5 -152t137.5 -199t165.5 -242 t168.5 -245v797q0 53 27.5 68.5t73.5 15.5h84q86 0 86 -84v-1194zM1034 1762q0 -20 -21 -64q-72 -151 -202 -151q-34 0 -61 7t-73 23.5t-71 24.5t-47 8q-20 0 -25.5 -4.5t-20 -21t-34.5 -31.5t-58 -15h-67q-35 0 -35 35t29 84q81 150 198 150q33 0 67.5 -8t74 -21.5t69 -23 t47.5 -9.5q23 0 45 24t33 32t33 8h61q58 0 58 -47z"></glyph><glyph glyph-name="Ograve" unicode="Ò" d="M1012 682q0 110 -9 203.5t-36 150.5q-61 131 -254 131t-254 -131q-27 -61 -36 -159t-9 -195q0 -253 45 -352q62 -133 254 -133t254 133q45 99 45 352zM1296 682q0 -372 -153 -553q-73 -87 -179 -129.5t-251 -42.5q-291 0 -432 172q-56 66 -90.5 153.5t-48 185 t-13.5 214.5q0 175 34 314.5t118 238.5q48 58 113.5 97t145 57t173.5 18q95 0 173 -18t141.5 -55.5t115.5 -98.5q153 -181 153 -553zM926 1561q0 -41 -80 -41h-84q-27 0 -51 10q-30 14 -53 38t-88 106q-3 3 -33.5 37.5t-46 52t-27.5 35.5t-12 30q0 30 37 38.5t106 8.5h17h6 q72 0 88 -12q20 -13 94.5 -110.5t110.5 -157.5q16 -28 16 -35z"></glyph><glyph glyph-name="Oacute" unicode="Ó" d="M1012 682q0 110 -9 203.5t-36 150.5q-61 131 -254 131t-254 -131q-27 -61 -36 -159t-9 -195q0 -253 45 -352q62 -133 254 -133t254 133q45 99 45 352zM1296 682q0 -372 -153 -553q-73 -87 -179 -129.5t-251 -42.5q-291 0 -432 172q-56 66 -90.5 153.5t-48 185 t-13.5 214.5q0 175 34 314.5t118 238.5q48 58 113.5 97t145 57t173.5 18q95 0 173 -18t141.5 -55.5t115.5 -98.5q153 -181 153 -553zM1004 1827q0 -13 -22 -43q-48 -56 -101 -118q-100 -121 -133 -136q-30 -12 -57 -12h-68q-48 0 -71 6.5t-23 34.5q0 7 16 35 q40 64 114 159.5t91 108.5q15 12 92 12q105 0 133.5 -12t28.5 -35z"></glyph><glyph glyph-name="Ocircumflex" unicode="Ô" d="M1012 682q0 110 -9 203.5t-36 150.5q-61 131 -254 131t-254 -131q-27 -61 -36 -159t-9 -195q0 -253 45 -352q62 -133 254 -133t254 133q45 99 45 352zM1296 682q0 -372 -153 -553q-73 -87 -179 -129.5t-251 -42.5q-291 0 -432 172q-56 66 -90.5 153.5t-48 185 t-13.5 214.5q0 175 34 314.5t118 238.5q48 58 113.5 97t145 57t173.5 18q95 0 173 -18t141.5 -55.5t115.5 -98.5q153 -181 153 -553zM1028 1567q0 -15 -32.5 -30t-104.5 -15q-32 0 -47 6q-11 4 -21.5 14.5t-24 31t-28.5 42.5q-15 23 -63 86q-45 -57 -64 -86 q-33 -50 -44.5 -65.5t-29.5 -22.5q-15 -6 -47 -6q-71 0 -104 15t-33 30q0 16 14 37l146 201q39 54 59 69q11 11 28.5 14t74.5 3q84 0 102 -17q20 -15 59 -69l146 -201q14 -21 14 -37z"></glyph><glyph glyph-name="Otilde" unicode="Õ" d="M1012 682q0 110 -9 203.5t-36 150.5q-61 131 -254 131t-254 -131q-27 -61 -36 -159t-9 -195q0 -253 45 -352q62 -133 254 -133t254 133q45 99 45 352zM1296 682q0 -372 -153 -553q-73 -87 -179 -129.5t-251 -42.5q-291 0 -432 172q-56 66 -90.5 153.5t-48 185 t-13.5 214.5q0 175 34 314.5t118 238.5q48 58 113.5 97t145 57t173.5 18q95 0 173 -18t141.5 -55.5t115.5 -98.5q153 -181 153 -553zM1084 1762q0 -20 -21 -64q-72 -151 -202 -151q-34 0 -61 7t-73 23.5t-71 24.5t-47 8q-20 0 -25.5 -4.5t-20 -21t-34.5 -31.5t-58 -15h-67 q-35 0 -35 35t29 84q81 150 198 150q33 0 67.5 -8t74 -21.5t69 -23t47.5 -9.5q23 0 45 24t33 32t33 8h61q58 0 58 -47z"></glyph><glyph glyph-name="Odieresis" unicode="Ö" d="M1012 682q0 110 -9 203.5t-36 150.5q-61 131 -254 131t-254 -131q-27 -61 -36 -159t-9 -195q0 -253 45 -352q62 -133 254 -133t254 133q45 99 45 352zM1296 682q0 -372 -153 -553q-73 -87 -179 -129.5t-251 -42.5q-291 0 -432 172q-56 66 -90.5 153.5t-48 185 t-13.5 214.5q0 175 34 314.5t118 238.5q48 58 113.5 97t145 57t173.5 18q95 0 173 -18t141.5 -55.5t115.5 -98.5q153 -181 153 -553zM643 1609q0 -26 -17.5 -43.5t-41.5 -17.5h-134q-23 0 -41 18t-18 43v137q0 26 17 45t42 19h134q25 0 42 -18.5t17 -45.5v-137zM1028 1609 q0 -26 -17.5 -43.5t-41.5 -17.5h-134q-23 0 -41 18t-18 43v137q0 26 17 45t42 19h134q25 0 42 -18.5t17 -45.5v-137z"></glyph><glyph glyph-name="multiply" unicode="×" d="M956 215l-149 -149l-283 276l-282 -276l-150 149l281 274l-281 277l150 149l282 -276l283 276l149 -149l-280 -277z"></glyph><glyph glyph-name="Oslash" unicode="Ø" d="M1059 682q0 123 -12 207l-508 -610q70 -82 219 -82q194 0 256 133q45 99 45 352zM973 1094q-68 73 -215 73q-191 0 -252 -131q-47 -104 -47 -354q0 -127 10 -190zM1403 1333q0 -22 -35 -67l-108 -131q45 -87 64 -200.5t19 -252.5q0 -102 -10 -196t-40.5 -181t-90.5 -162 q-80 -100 -189.5 -143t-254.5 -43q-246 0 -385 127l-105 -125q-33 -37 -53 -37q-15 0 -35 17l-59 51q-23 19 -23 41q0 18 25 51l133 158q-31 63 -48.5 134.5t-24.5 147t-7 160.5q0 175 34 314.5t118 238.5q48 58 113 97t144 57t173 18q241 0 381 -121l98 119q30 37 53 37 q15 0 41 -21l51 -43q21 -17 21 -45z"></glyph><glyph glyph-name="Ugrave" unicode="Ù" d="M1253 850q0 -210 -4.5 -311t-19.5 -191q-31 -178 -129 -270q-120 -109 -404 -109q-281 0 -401 109q-102 94 -131 270q-15 93 -19 192.5t-4 309.5v434q0 53 27 68.5t72 15.5h86q90 0 90 -84v-604q0 -161 9 -238.5t34 -132.5q18 -38 44.5 -58.5t71 -31t121.5 -10.5 q109 0 162 24t78 76q24 50 33.5 124t9.5 247v604q0 54 27.5 69t74.5 15h88q51 0 67.5 -21.5t16.5 -62.5v-434zM862 1561q0 -41 -80 -41h-84q-27 0 -51 10q-30 14 -53 38t-88 106q-3 3 -33.5 37.5t-46 52t-27.5 35.5t-12 30q0 30 37 38.5t106 8.5h17h6q72 0 88 -12 q20 -13 94.5 -110.5t110.5 -157.5q16 -28 16 -35z"></glyph><glyph glyph-name="Uacute" unicode="Ú" d="M1253 850q0 -210 -4.5 -311t-19.5 -191q-31 -178 -129 -270q-120 -109 -404 -109q-281 0 -401 109q-102 94 -131 270q-15 93 -19 192.5t-4 309.5v434q0 53 27 68.5t72 15.5h86q90 0 90 -84v-604q0 -161 9 -238.5t34 -132.5q18 -38 44.5 -58.5t71 -31t121.5 -10.5 q109 0 162 24t78 76q24 50 33.5 124t9.5 247v604q0 54 27.5 69t74.5 15h88q51 0 67.5 -21.5t16.5 -62.5v-434zM1016 1827q0 -13 -22 -43q-48 -56 -101 -118q-100 -121 -133 -136q-30 -12 -57 -12h-68q-48 0 -71 6.5t-23 34.5q0 7 16 35q40 64 114 159.5t91 108.5 q15 12 92 12q105 0 133.5 -12t28.5 -35z"></glyph><glyph glyph-name="Ucircumflex" unicode="Û" d="M1253 850q0 -210 -4.5 -311t-19.5 -191q-31 -178 -129 -270q-120 -109 -404 -109q-281 0 -401 109q-102 94 -131 270q-15 93 -19 192.5t-4 309.5v434q0 53 27 68.5t72 15.5h86q90 0 90 -84v-604q0 -161 9 -238.5t34 -132.5q18 -38 44.5 -58.5t71 -31t121.5 -10.5 q109 0 162 24t78 76q24 50 33.5 124t9.5 247v604q0 54 27.5 69t74.5 15h88q51 0 67.5 -21.5t16.5 -62.5v-434zM1022 1567q0 -15 -32.5 -30t-104.5 -15q-32 0 -47 6q-11 4 -21.5 14.5t-24 31t-28.5 42.5q-15 23 -63 86q-45 -57 -64 -86q-33 -50 -44.5 -65.5t-29.5 -22.5 q-15 -6 -47 -6q-71 0 -104 15t-33 30q0 16 14 37l146 201q39 54 59 69q11 11 28.5 14t74.5 3q84 0 102 -17q20 -15 59 -69l146 -201q14 -21 14 -37z"></glyph><glyph glyph-name="Udieresis" unicode="Ü" d="M1253 850q0 -210 -4.5 -311t-19.5 -191q-31 -178 -129 -270q-120 -109 -404 -109q-281 0 -401 109q-102 94 -131 270q-15 93 -19 192.5t-4 309.5v434q0 53 27 68.5t72 15.5h86q90 0 90 -84v-604q0 -161 9 -238.5t34 -132.5q18 -38 44.5 -58.5t71 -31t121.5 -10.5 q109 0 162 24t78 76q24 50 33.5 124t9.5 247v604q0 54 27.5 69t74.5 15h88q51 0 67.5 -21.5t16.5 -62.5v-434zM631 1609q0 -26 -17.5 -43.5t-41.5 -17.5h-134q-23 0 -41 18t-18 43v137q0 26 17 45t42 19h134q25 0 42 -18.5t17 -45.5v-137zM1016 1609q0 -26 -17.5 -43.5 t-41.5 -17.5h-134q-23 0 -41 18t-18 43v137q0 26 17 45t42 19h134q25 0 42 -18.5t17 -45.5v-137z"></glyph><glyph glyph-name="Yacute" unicode="Ý" d="M1190 1300q0 -34 -29 -79l-389 -691v-440q0 -90 -88 -90h-88q-52 0 -75 19.5t-23 70.5v424l-410 729q-20 35 -20 60q0 34 24 49.5t55 15.5h111q44 0 65 -14t37 -45l277 -502l283 504q16 31 37.5 44t64.5 13h90q38 0 58 -18.5t20 -49.5zM975 1827q0 -13 -22 -43 q-48 -56 -101 -118q-100 -121 -133 -136q-30 -12 -57 -12h-68q-48 0 -71 6.5t-23 34.5q0 7 16 35q40 64 114 159.5t91 108.5q15 12 92 12q105 0 133.5 -12t28.5 -35z"></glyph><glyph glyph-name="Thorn" unicode="Þ" d="M801 707q0 105 -14 153.5t-42 61.5q-28 14 -163 14h-90q-44 0 -62 -13.5t-18 -54.5v-389h231q105 0 133 39q15 20 20 54t5 135zM1073 692q0 -316 -178 -401q-59 -27 -121.5 -36t-169.5 -9h-192v-156q0 -90 -88 -90h-86q-52 0 -76.5 19.5t-24.5 70.5v1194q0 53 27.5 68.5 t73.5 15.5h86q88 0 88 -90v-107h204q164 0 227.5 -17.5t123.5 -78.5q55 -55 80.5 -151.5t25.5 -231.5z"></glyph><glyph glyph-name="germandbls" unicode="ß" d="M1094 514q0 -153 -39.5 -271.5t-135.5 -192t-253 -73.5q-133 0 -150 54l-24 73q-7 18 -7 35q0 33 21.5 54.5t54.5 21.5q17 0 58 -4t65 -4q50 0 81 27t47.5 100t16.5 205q0 100 -25 142.5t-73.5 52t-157.5 9.5q-48 0 -63.5 26t-15.5 79q0 59 20 83.5t76 24.5 q112 0 157.5 20.5t45.5 96.5q0 55 -16.5 84t-53.5 39t-111 10q-106 0 -155 -27t-49 -100v-987q0 -92 -82 -92h-74q-59 0 -84 17.5t-25 74.5v934q0 74 11.5 134t35.5 103t64 76q56 46 144.5 65t226.5 19q116 0 190.5 -10.5t127 -43t80.5 -96.5t28 -171q0 -98 -20.5 -152 t-74.5 -86q82 -36 110 -125t28 -225z"></glyph><glyph glyph-name="agrave" unicode="à" d="M694 266v166q-70 4 -100 4q-105 0 -156 -10.5t-72.5 -39t-21.5 -85.5q0 -61 19.5 -99t56.5 -38q45 0 90 11t90.5 34t93.5 57zM950 88q0 -45 -17.5 -66.5t-64.5 -21.5h-114q-29 0 -44.5 17t-15.5 57q-62 -38 -106 -58t-93.5 -31.5t-103.5 -11.5q-293 0 -293 306 q0 163 89 233.5t245 87.5q41 5 66 8t63.5 5.5t82.5 2.5h22h26q0 110 -14 148q-19 49 -88 49q-123 0 -295 -43q-12 -2 -21.5 -4t-15.5 -2h-12q-60 0 -60 65v58q0 71 58 86q47 12 114 21t122.5 13.5t99.5 4.5q212 0 292 -94q47 -53 62.5 -117t15.5 -215v-498zM745 1239 q0 -41 -80 -41h-84q-27 0 -51 10q-30 14 -53 38t-88 106q-3 3 -33.5 37.5t-46 52t-27.5 35.5t-12 30q0 30 37 38.5t106 8.5h17h6q72 0 88 -12q20 -13 94.5 -110.5t110.5 -157.5q16 -28 16 -35z"></glyph><glyph glyph-name="aacute" unicode="á" d="M694 266v166q-70 4 -100 4q-105 0 -156 -10.5t-72.5 -39t-21.5 -85.5q0 -61 19.5 -99t56.5 -38q45 0 90 11t90.5 34t93.5 57zM950 88q0 -45 -17.5 -66.5t-64.5 -21.5h-114q-29 0 -44.5 17t-15.5 57q-62 -38 -106 -58t-93.5 -31.5t-103.5 -11.5q-293 0 -293 306 q0 163 89 233.5t245 87.5q41 5 66 8t63.5 5.5t82.5 2.5h22h26q0 110 -14 148q-19 49 -88 49q-123 0 -295 -43q-12 -2 -21.5 -4t-15.5 -2h-12q-60 0 -60 65v58q0 71 58 86q47 12 114 21t122.5 13.5t99.5 4.5q212 0 292 -94q47 -53 62.5 -117t15.5 -215v-498zM868 1509 q0 -13 -22 -43q-48 -56 -101 -118q-100 -121 -133 -136q-30 -12 -57 -12h-68q-48 0 -71 6.5t-23 34.5q0 7 16 35q40 64 114 159.5t91 108.5q15 12 92 12q105 0 133.5 -12t28.5 -35z"></glyph><glyph glyph-name="acircumflex" unicode="â" d="M694 266v166q-70 4 -100 4q-105 0 -156 -10.5t-72.5 -39t-21.5 -85.5q0 -61 19.5 -99t56.5 -38q45 0 90 11t90.5 34t93.5 57zM950 88q0 -45 -17.5 -66.5t-64.5 -21.5h-114q-29 0 -44.5 17t-15.5 57q-62 -38 -106 -58t-93.5 -31.5t-103.5 -11.5q-293 0 -293 306 q0 163 89 233.5t245 87.5q41 5 66 8t63.5 5.5t82.5 2.5h22h26q0 110 -14 148q-19 49 -88 49q-123 0 -295 -43q-12 -2 -21.5 -4t-15.5 -2h-12q-60 0 -60 65v58q0 71 58 86q47 12 114 21t122.5 13.5t99.5 4.5q212 0 292 -94q47 -53 62.5 -117t15.5 -215v-498zM858 1229 q0 -15 -32.5 -30t-104.5 -15q-32 0 -47 6q-11 4 -21.5 14.5t-24 31t-28.5 42.5q-15 23 -63 86q-45 -57 -64 -86q-33 -50 -44.5 -65.5t-29.5 -22.5q-15 -6 -47 -6q-71 0 -104 15t-33 30q0 16 14 37l146 201q39 54 59 69q11 11 28.5 14t74.5 3q84 0 102 -17q20 -15 59 -69 l146 -201q14 -21 14 -37z"></glyph><glyph glyph-name="atilde" unicode="ã" d="M694 266v166q-70 4 -100 4q-105 0 -156 -10.5t-72.5 -39t-21.5 -85.5q0 -61 19.5 -99t56.5 -38q45 0 90 11t90.5 34t93.5 57zM950 88q0 -45 -17.5 -66.5t-64.5 -21.5h-114q-29 0 -44.5 17t-15.5 57q-62 -38 -106 -58t-93.5 -31.5t-103.5 -11.5q-293 0 -293 306 q0 163 89 233.5t245 87.5q41 5 66 8t63.5 5.5t82.5 2.5h22h26q0 110 -14 148q-19 49 -88 49q-123 0 -295 -43q-12 -2 -21.5 -4t-15.5 -2h-12q-60 0 -60 65v58q0 71 58 86q47 12 114 21t122.5 13.5t99.5 4.5q212 0 292 -94q47 -53 62.5 -117t15.5 -215v-498zM919 1406 q0 -20 -21 -64q-72 -151 -202 -151q-34 0 -61 7t-73 23.5t-71 24.5t-47 8q-20 0 -25.5 -4.5t-20 -21t-34.5 -31.5t-58 -15h-67q-35 0 -35 35t29 84q81 150 198 150q33 0 67.5 -8t74 -21.5t69 -23t47.5 -9.5q23 0 45 24t33 32t33 8h61q58 0 58 -47z"></glyph><glyph glyph-name="adieresis" unicode="ä" d="M694 266v166q-70 4 -100 4q-105 0 -156 -10.5t-72.5 -39t-21.5 -85.5q0 -61 19.5 -99t56.5 -38q45 0 90 11t90.5 34t93.5 57zM950 88q0 -45 -17.5 -66.5t-64.5 -21.5h-114q-29 0 -44.5 17t-15.5 57q-62 -38 -106 -58t-93.5 -31.5t-103.5 -11.5q-293 0 -293 306 q0 163 89 233.5t245 87.5q41 5 66 8t63.5 5.5t82.5 2.5h22h26q0 110 -14 148q-19 49 -88 49q-123 0 -295 -43q-12 -2 -21.5 -4t-15.5 -2h-12q-60 0 -60 65v58q0 71 58 86q47 12 114 21t122.5 13.5t99.5 4.5q212 0 292 -94q47 -53 62.5 -117t15.5 -215v-498zM504 1259 q0 -26 -17.5 -43.5t-41.5 -17.5h-134q-23 0 -41 18t-18 43v137q0 26 17 45t42 19h134q25 0 42 -18.5t17 -45.5v-137zM889 1259q0 -26 -17.5 -43.5t-41.5 -17.5h-134q-23 0 -41 18t-18 43v137q0 26 17 45t42 19h134q25 0 42 -18.5t17 -45.5v-137z"></glyph><glyph glyph-name="aring" unicode="å" d="M694 266v166q-70 4 -100 4q-105 0 -156 -10.5t-72.5 -39t-21.5 -85.5q0 -61 19.5 -99t56.5 -38q45 0 90 11t90.5 34t93.5 57zM950 88q0 -45 -17.5 -66.5t-64.5 -21.5h-114q-29 0 -44.5 17t-15.5 57q-62 -38 -106 -58t-93.5 -31.5t-103.5 -11.5q-293 0 -293 306 q0 163 89 233.5t245 87.5q41 5 66 8t63.5 5.5t82.5 2.5h22h26q0 110 -14 148q-19 49 -88 49q-123 0 -295 -43q-12 -2 -21.5 -4t-15.5 -2h-12q-60 0 -60 65v58q0 71 58 86q47 12 114 21t122.5 13.5t99.5 4.5q212 0 292 -94q47 -53 62.5 -117t15.5 -215v-498zM649 1357 q0 34 -23 58t-57 24q-33 0 -55.5 -24.5t-22.5 -57.5q0 -32 23 -56t55 -24q33 0 56.5 24.5t23.5 55.5zM752 1357q0 -79 -53.5 -133.5t-129.5 -54.5q-72 0 -127 56t-55 132q0 78 53.5 133.5t128.5 55.5q77 0 130 -55t53 -134z"></glyph><glyph glyph-name="ae" unicode="æ" d="M713 272q-15 77 -19 160q-70 4 -100 4q-105 0 -156 -10.5t-72.5 -39t-21.5 -85.5q0 -61 19.5 -99t56.5 -38q71 0 146 29t147 79zM1290 588v39q0 104 -29 142t-128 38q-73 0 -112 -19t-53 -60.5t-14 -121.5v-18h336zM1540 532q0 -53 -6.5 -80.5t-23.5 -35.5t-56 -8h-500 v-29q0 -73 14.5 -119t53.5 -63q51 -23 123 -23q102 0 250 33q7 1 20 4.5t26 6.5t25 3q22 0 36 -19t20 -44q4 -19 4 -60v-8q0 -40 -14.5 -61.5t-59.5 -28.5q-150 -27 -309 -27q-229 0 -332 97q-31 31 -41 47q-79 -59 -180 -101.5t-199 -42.5q-293 0 -293 306q0 163 89 233.5 t245 87.5q41 5 66 8t63.5 5.5t82.5 2.5h22h26q0 110 -14 148q-19 49 -88 49q-123 0 -295 -43q-12 -2 -21.5 -4t-15.5 -2h-12q-60 0 -60 65v58q0 71 58 86q47 12 114 21t122.5 13.5t99.5 4.5q180 0 266 -68q98 68 287 68q125 0 206 -31.5t125 -95.5t60 -151t16 -202z"></glyph><glyph glyph-name="ccedilla" unicode="ç" d="M866 57q0 -39 -17.5 -53t-94.5 -22q-30 -2 -47 -4t-37 -3q0 -17 -11 -30l-129 -174q-21 -29 -41 -42.5t-53 -13.5h-80q-65 0 -65 45v4q0 15 8 23q4 14 39.5 55.5t70.5 79t52 55.5q-107 11 -172 41.5t-103.5 88.5t-55.5 152.5t-17 232.5q0 161 22 260t73 155t141 80.5 t231 24.5q77 0 174 -11q51 -4 76 -12t30.5 -19.5t5.5 -37.5v-4v-4q0 -93 -22 -127q-20 -29 -51 -29q-11 0 -112.5 12.5t-162.5 12.5q-67 0 -86.5 -19t-34.5 -78q-16 -71 -16 -204q0 -87 8 -197q5 -60 30.5 -81t98.5 -21q56 0 161 12t114 12q30 0 49 -20q8 -9 16 -50.5 t8 -89.5z"></glyph><glyph glyph-name="egrave" unicode="è" d="M709 588v39q0 102 -29.5 141t-128.5 39q-73 0 -111.5 -19t-52.5 -60.5t-14 -121.5v-18h336zM958 532q0 -53 -6.5 -80.5t-23.5 -35.5t-56 -8h-499v-29q0 -72 14 -118.5t53 -63.5q51 -23 123 -23q102 0 250 33q6 1 20.5 5t27.5 6.5t24 2.5q21 0 35 -19t20 -44q4 -19 4 -60 v-8q0 -40 -14.5 -61.5t-59.5 -28.5q-150 -27 -309 -27q-114 0 -198 25t-134 72q-62 57 -88 156.5t-26 258.5q0 139 18.5 234t63.5 158q48 68 135 101.5t219 33.5q125 0 205.5 -31t126.5 -96q43 -62 59 -150t16 -203zM729 1243q0 -41 -80 -41h-84q-27 0 -51 10q-30 14 -53 38 t-88 106q-3 3 -33.5 37.5t-46 52t-27.5 35.5t-12 30q0 30 37 38.5t106 8.5h17h6q72 0 88 -12q20 -13 94.5 -110.5t110.5 -157.5q16 -28 16 -35z"></glyph><glyph glyph-name="eacute" unicode="é" d="M709 588v39q0 102 -29.5 141t-128.5 39q-73 0 -111.5 -19t-52.5 -60.5t-14 -121.5v-18h336zM958 532q0 -53 -6.5 -80.5t-23.5 -35.5t-56 -8h-499v-29q0 -72 14 -118.5t53 -63.5q51 -23 123 -23q102 0 250 33q6 1 20.5 5t27.5 6.5t24 2.5q21 0 35 -19t20 -44q4 -19 4 -60 v-8q0 -40 -14.5 -61.5t-59.5 -28.5q-150 -27 -309 -27q-114 0 -198 25t-134 72q-62 57 -88 156.5t-26 258.5q0 139 18.5 234t63.5 158q48 68 135 101.5t219 33.5q125 0 205.5 -31t126.5 -96q43 -62 59 -150t16 -203zM893 1511q0 -13 -22 -43q-48 -56 -101 -118 q-100 -121 -133 -136q-30 -12 -57 -12h-68q-48 0 -71 6.5t-23 34.5q0 7 16 35q40 64 114 159.5t91 108.5q15 12 92 12q105 0 133.5 -12t28.5 -35z"></glyph><glyph glyph-name="ecircumflex" unicode="ê" d="M709 588v39q0 102 -29.5 141t-128.5 39q-73 0 -111.5 -19t-52.5 -60.5t-14 -121.5v-18h336zM958 532q0 -53 -6.5 -80.5t-23.5 -35.5t-56 -8h-499v-29q0 -72 14 -118.5t53 -63.5q51 -23 123 -23q102 0 250 33q6 1 20.5 5t27.5 6.5t24 2.5q21 0 35 -19t20 -44q4 -19 4 -60 v-8q0 -40 -14.5 -61.5t-59.5 -28.5q-150 -27 -309 -27q-114 0 -198 25t-134 72q-62 57 -88 156.5t-26 258.5q0 139 18.5 234t63.5 158q48 68 135 101.5t219 33.5q125 0 205.5 -31t126.5 -96q43 -62 59 -150t16 -203zM883 1229q0 -15 -32.5 -30t-104.5 -15q-32 0 -47 6 q-11 4 -21.5 14.5t-24 31t-28.5 42.5q-15 23 -63 86q-45 -57 -64 -86q-33 -50 -44.5 -65.5t-29.5 -22.5q-15 -6 -47 -6q-71 0 -104 15t-33 30q0 16 14 37l146 201q39 54 59 69q11 11 28.5 14t74.5 3q84 0 102 -17q20 -15 59 -69l146 -201q14 -21 14 -37z"></glyph><glyph glyph-name="edieresis" unicode="ë" d="M709 588v39q0 102 -29.5 141t-128.5 39q-73 0 -111.5 -19t-52.5 -60.5t-14 -121.5v-18h336zM958 532q0 -53 -6.5 -80.5t-23.5 -35.5t-56 -8h-499v-29q0 -72 14 -118.5t53 -63.5q51 -23 123 -23q102 0 250 33q6 1 20.5 5t27.5 6.5t24 2.5q21 0 35 -19t20 -44q4 -19 4 -60 v-8q0 -40 -14.5 -61.5t-59.5 -28.5q-150 -27 -309 -27q-114 0 -198 25t-134 72q-62 57 -88 156.5t-26 258.5q0 139 18.5 234t63.5 158q48 68 135 101.5t219 33.5q125 0 205.5 -31t126.5 -96q43 -62 59 -150t16 -203zM502 1259q0 -26 -17.5 -43.5t-41.5 -17.5h-134 q-23 0 -41 18t-18 43v137q0 26 17 45t42 19h134q25 0 42 -18.5t17 -45.5v-137zM887 1259q0 -26 -17.5 -43.5t-41.5 -17.5h-134q-23 0 -41 18t-18 43v137q0 26 17 45t42 19h134q25 0 42 -18.5t17 -45.5v-137z"></glyph><glyph glyph-name="igrave" unicode="ì" d="M416 88q0 -88 -82 -88h-78q-59 0 -84 16.5t-25 71.5v780q0 47 21.5 65.5t69.5 18.5h96q42 0 62 -25.5t20 -58.5v-780zM492 1243q0 -41 -80 -41h-84q-27 0 -51 10q-30 14 -53 38t-88 106q-3 3 -33.5 37.5t-46 52t-27.5 35.5t-12 30q0 30 37 38.5t106 8.5h17h6q72 0 88 -12 q20 -13 94.5 -110.5t110.5 -157.5q16 -28 16 -35z"></glyph><glyph glyph-name="iacute" unicode="í" d="M416 88q0 -88 -82 -88h-78q-59 0 -84 16.5t-25 71.5v780q0 47 21.5 65.5t69.5 18.5h96q42 0 62 -25.5t20 -58.5v-780zM588 1507q0 -13 -22 -43q-48 -56 -101 -118q-100 -121 -133 -136q-30 -12 -57 -12h-68q-48 0 -71 6.5t-23 34.5q0 7 16 35q40 64 114 159.5t91 108.5 q15 12 92 12q105 0 133.5 -12t28.5 -35z"></glyph><glyph glyph-name="icircumflex" unicode="î" d="M416 88q0 -88 -82 -88h-78q-59 0 -84 16.5t-25 71.5v780q0 47 21.5 65.5t69.5 18.5h96q42 0 62 -25.5t20 -58.5v-780zM602 1229q0 -15 -32.5 -30t-104.5 -15q-32 0 -47 6q-11 4 -21.5 14.5t-24 31t-28.5 42.5q-15 23 -63 86q-45 -57 -64 -86q-33 -50 -44.5 -65.5 t-29.5 -22.5q-15 -6 -47 -6q-71 0 -104 15t-33 30q0 16 14 37l146 201q39 54 59 69q11 11 28.5 14t74.5 3q84 0 102 -17q20 -15 59 -69l146 -201q14 -21 14 -37z"></glyph><glyph glyph-name="idieresis" unicode="ï" d="M416 88q0 -88 -82 -88h-78q-59 0 -84 16.5t-25 71.5v780q0 47 21.5 65.5t69.5 18.5h96q42 0 62 -25.5t20 -58.5v-780zM217 1259q0 -26 -17.5 -43.5t-41.5 -17.5h-134q-23 0 -41 18t-18 43v137q0 26 17 45t42 19h134q25 0 42 -18.5t17 -45.5v-137zM602 1259 q0 -26 -17.5 -43.5t-41.5 -17.5h-134q-23 0 -41 18t-18 43v137q0 26 17 45t42 19h134q25 0 42 -18.5t17 -45.5v-137z"></glyph><glyph glyph-name="ntilde" unicode="ñ" d="M997 90q0 -46 -17.5 -68t-64.5 -22h-71q-42 0 -64 6t-33.5 26t-11.5 58v531q0 118 -14 145q-15 31 -64 31q-65 0 -121.5 -27.5t-129.5 -85.5v-594q0 -46 -17 -68t-63 -22h-74q-42 0 -64 6t-33.5 26t-11.5 58v803q0 49 22 68.5t68 19.5h93q32 0 46 -13.5t23 -49.5 q64 43 134 68.5t153 25.5q118 0 188 -41.5t98.5 -105.5t28.5 -138v-637zM918 1406q0 -20 -21 -64q-72 -151 -202 -151q-34 0 -61 7t-73 23.5t-71 24.5t-47 8q-20 0 -25.5 -4.5t-20 -21t-34.5 -31.5t-58 -15h-67q-35 0 -35 35t29 84q81 150 198 150q33 0 67.5 -8t74 -21.5 t69 -23t47.5 -9.5q23 0 45 24t33 32t33 8h61q58 0 58 -47z"></glyph><glyph glyph-name="ograve" unicode="ò" d="M791 492q0 168 -37 237q-19 37 -52 51.5t-116 14.5q-82 0 -115.5 -14t-52.5 -52q-39 -70 -39 -237q0 -168 39 -238q20 -36 53 -50t115 -14q83 0 116 14.5t52 49.5q37 69 37 238zM1055 492q0 -136 -29.5 -233.5t-93.5 -166.5q-113 -119 -346 -119q-234 0 -346 119 q-64 67 -94.5 165.5t-30.5 234.5q0 137 30.5 235.5t94.5 165.5q112 119 346 119q115 0 201.5 -29t144.5 -90q66 -69 94.5 -166.5t28.5 -234.5zM721 1243q0 -41 -80 -41h-84q-27 0 -51 10q-30 14 -53 38t-88 106q-3 3 -33.5 37.5t-46 52t-27.5 35.5t-12 30q0 30 37 38.5 t106 8.5h17h6q72 0 88 -12q20 -13 94.5 -110.5t110.5 -157.5q16 -28 16 -35z"></glyph><glyph glyph-name="oacute" unicode="ó" d="M791 492q0 168 -37 237q-19 37 -52 51.5t-116 14.5q-82 0 -115.5 -14t-52.5 -52q-39 -70 -39 -237q0 -168 39 -238q20 -36 53 -50t115 -14q83 0 116 14.5t52 49.5q37 69 37 238zM1055 492q0 -136 -29.5 -233.5t-93.5 -166.5q-113 -119 -346 -119q-234 0 -346 119 q-64 67 -94.5 165.5t-30.5 234.5q0 137 30.5 235.5t94.5 165.5q112 119 346 119q115 0 201.5 -29t144.5 -90q66 -69 94.5 -166.5t28.5 -234.5zM854 1507q0 -13 -22 -43q-48 -56 -101 -118q-100 -121 -133 -136q-30 -12 -57 -12h-68q-48 0 -71 6.5t-23 34.5q0 7 16 35 q40 64 114 159.5t91 108.5q15 12 92 12q105 0 133.5 -12t28.5 -35z"></glyph><glyph glyph-name="ocircumflex" unicode="ô" d="M791 492q0 168 -37 237q-19 37 -52 51.5t-116 14.5q-82 0 -115.5 -14t-52.5 -52q-39 -70 -39 -237q0 -168 39 -238q20 -36 53 -50t115 -14q83 0 116 14.5t52 49.5q37 69 37 238zM1055 492q0 -136 -29.5 -233.5t-93.5 -166.5q-113 -119 -346 -119q-234 0 -346 119 q-64 67 -94.5 165.5t-30.5 234.5q0 137 30.5 235.5t94.5 165.5q112 119 346 119q115 0 201.5 -29t144.5 -90q66 -69 94.5 -166.5t28.5 -234.5zM897 1229q0 -15 -32.5 -30t-104.5 -15q-32 0 -47 6q-11 4 -21.5 14.5t-24 31t-28.5 42.5q-15 23 -63 86q-45 -57 -64 -86 q-33 -50 -44.5 -65.5t-29.5 -22.5q-15 -6 -47 -6q-71 0 -104 15t-33 30q0 16 14 37l146 201q39 54 59 69q11 11 28.5 14t74.5 3q84 0 102 -17q20 -15 59 -69l146 -201q14 -21 14 -37z"></glyph><glyph glyph-name="otilde" unicode="õ" d="M791 492q0 168 -37 237q-19 37 -52 51.5t-116 14.5q-82 0 -115.5 -14t-52.5 -52q-39 -70 -39 -237q0 -168 39 -238q20 -36 53 -50t115 -14q83 0 116 14.5t52 49.5q37 69 37 238zM1055 492q0 -136 -29.5 -233.5t-93.5 -166.5q-113 -119 -346 -119q-234 0 -346 119 q-64 67 -94.5 165.5t-30.5 234.5q0 137 30.5 235.5t94.5 165.5q112 119 346 119q115 0 201.5 -29t144.5 -90q66 -69 94.5 -166.5t28.5 -234.5zM924 1406q0 -20 -21 -64q-72 -151 -202 -151q-34 0 -61 7t-73 23.5t-71 24.5t-47 8q-20 0 -25.5 -4.5t-20 -21t-34.5 -31.5 t-58 -15h-67q-35 0 -35 35t29 84q81 150 198 150q33 0 67.5 -8t74 -21.5t69 -23t47.5 -9.5q23 0 45 24t33 32t33 8h61q58 0 58 -47z"></glyph><glyph glyph-name="odieresis" unicode="ö" d="M791 492q0 168 -37 237q-19 37 -52 51.5t-116 14.5q-82 0 -115.5 -14t-52.5 -52q-39 -70 -39 -237q0 -168 39 -238q20 -36 53 -50t115 -14q83 0 116 14.5t52 49.5q37 69 37 238zM1055 492q0 -136 -29.5 -233.5t-93.5 -166.5q-113 -119 -346 -119q-234 0 -346 119 q-64 67 -94.5 165.5t-30.5 234.5q0 137 30.5 235.5t94.5 165.5q112 119 346 119q115 0 201.5 -29t144.5 -90q66 -69 94.5 -166.5t28.5 -234.5zM510 1259q0 -26 -17.5 -43.5t-41.5 -17.5h-134q-23 0 -41 18t-18 43v137q0 26 17 45t42 19h134q25 0 42 -18.5t17 -45.5v-137z M895 1259q0 -26 -17.5 -43.5t-41.5 -17.5h-134q-23 0 -41 18t-18 43v137q0 26 17 45t42 19h134q25 0 42 -18.5t17 -45.5v-137z"></glyph><glyph glyph-name="divide" unicode="÷" d="M674 143q0 -55 -38 -94t-91 -39t-90 39.5t-37 93.5q0 56 36 94.5t91 38.5q53 0 91 -39.5t38 -93.5zM1008 401h-891v179h891v-179zM674 838q0 -55 -38 -94t-91 -39q-54 0 -90.5 40t-36.5 93q0 56 36 94.5t91 38.5q53 0 91 -39.5t38 -93.5z"></glyph><glyph glyph-name="oslash" unicode="ø" d="M793 492q0 20 -1 39t-2.5 36.5t-3.5 32.5l-327 -391q33 -19 129 -19q83 0 116 14.5t52 49.5q37 69 37 238zM719 774q-37 21 -131 21q-82 0 -115.5 -14t-52.5 -52q-39 -70 -39 -237q0 -80 4 -113zM1077 1051q25 -31 25 -52q0 -24 -29 -59l-92 -111q76 -123 76 -337 q0 -136 -29.5 -233.5t-93.5 -166.5q-113 -119 -346 -119q-166 0 -275 64l-77 -92q-27 -33 -58 -33q-21 0 -45 20l-14 13q-37 30 -37 53q0 24 37 65l76 89q-39 62 -58.5 146.5t-19.5 193.5q0 137 30.5 235.5t94.5 165.5q112 119 346 119q170 0 276 -64l94 111q27 31 56 31 q26 0 51 -25z"></glyph><glyph glyph-name="ugrave" unicode="ù" d="M989 88q0 -49 -20.5 -68.5t-67.5 -19.5h-92q-53 0 -70 68q-144 -97 -288 -97q-119 0 -189 42.5t-98.5 106t-28.5 138.5v633q0 45 18.5 67.5t63.5 22.5h74q61 0 83.5 -16.5t22.5 -73.5v-529q0 -114 15 -141q17 -33 63 -33q65 0 117 25.5t135 87.5v590q0 45 18.5 67.5 t63.5 22.5h74q60 0 83 -16t23 -74v-803zM729 1239q0 -41 -80 -41h-84q-27 0 -51 10q-30 14 -53 38t-88 106q-3 3 -33.5 37.5t-46 52t-27.5 35.5t-12 30q0 30 37 38.5t106 8.5h17h6q72 0 88 -12q20 -13 94.5 -110.5t110.5 -157.5q16 -28 16 -35z"></glyph><glyph glyph-name="uacute" unicode="ú" d="M989 88q0 -49 -20.5 -68.5t-67.5 -19.5h-92q-53 0 -70 68q-144 -97 -288 -97q-119 0 -189 42.5t-98.5 106t-28.5 138.5v633q0 45 18.5 67.5t63.5 22.5h74q61 0 83.5 -16.5t22.5 -73.5v-529q0 -114 15 -141q17 -33 63 -33q65 0 117 25.5t135 87.5v590q0 45 18.5 67.5 t63.5 22.5h74q60 0 83 -16t23 -74v-803zM877 1501q0 -13 -22 -43q-48 -56 -101 -118q-100 -121 -133 -136q-30 -12 -57 -12h-68q-48 0 -71 6.5t-23 34.5q0 7 16 35q40 64 114 159.5t91 108.5q15 12 92 12q105 0 133.5 -12t28.5 -35z"></glyph><glyph glyph-name="ucircumflex" unicode="û" d="M989 88q0 -49 -20.5 -68.5t-67.5 -19.5h-92q-53 0 -70 68q-144 -97 -288 -97q-119 0 -189 42.5t-98.5 106t-28.5 138.5v633q0 45 18.5 67.5t63.5 22.5h74q61 0 83.5 -16.5t22.5 -73.5v-529q0 -114 15 -141q17 -33 63 -33q65 0 117 25.5t135 87.5v590q0 45 18.5 67.5 t63.5 22.5h74q60 0 83 -16t23 -74v-803zM872 1229q0 -15 -32.5 -30t-104.5 -15q-32 0 -47 6q-11 4 -21.5 14.5t-24 31t-28.5 42.5q-15 23 -63 86q-45 -57 -64 -86q-33 -50 -44.5 -65.5t-29.5 -22.5q-15 -6 -47 -6q-71 0 -104 15t-33 30q0 16 14 37l146 201q39 54 59 69 q11 11 28.5 14t74.5 3q84 0 102 -17q20 -15 59 -69l146 -201q14 -21 14 -37z"></glyph><glyph glyph-name="udieresis" unicode="ü" d="M989 88q0 -49 -20.5 -68.5t-67.5 -19.5h-92q-53 0 -70 68q-144 -97 -288 -97q-119 0 -189 42.5t-98.5 106t-28.5 138.5v633q0 45 18.5 67.5t63.5 22.5h74q61 0 83.5 -16.5t22.5 -73.5v-529q0 -114 15 -141q17 -33 63 -33q65 0 117 25.5t135 87.5v590q0 45 18.5 67.5 t63.5 22.5h74q60 0 83 -16t23 -74v-803zM494 1259q0 -26 -17.5 -43.5t-41.5 -17.5h-134q-23 0 -41 18t-18 43v137q0 26 17 45t42 19h134q25 0 42 -18.5t17 -45.5v-137zM879 1259q0 -26 -17.5 -43.5t-41.5 -17.5h-134q-23 0 -41 18t-18 43v137q0 26 17 45t42 19h134 q25 0 42 -18.5t17 -45.5v-137z"></glyph><glyph glyph-name="yacute" unicode="ý" d="M985 922q0 -16 -12 -48l-445 -1234q-13 -38 -34 -50t-66 -12h-102q-72 0 -72 53q0 17 14 50l154 362l-336 850q-8 16 -8 33q0 25 23 40t49 15h92q62 0 82.5 -11t31.5 -46l185 -580l174 557q15 47 39.5 63.5t72.5 16.5h88q30 0 50 -14t20 -45zM891 1515q0 -13 -22 -43 q-48 -56 -101 -118q-100 -121 -133 -136q-30 -12 -57 -12h-68q-48 0 -71 6.5t-23 34.5q0 7 16 35q40 64 114 159.5t91 108.5q15 12 92 12q105 0 133.5 -12t28.5 -35z"></glyph><glyph glyph-name="thorn" unicode="þ" d="M778 504q0 63 -6.5 126.5t-13.5 96.5q-15 68 -80 68q-51 0 -128 -33t-144 -76v-467q98 -29 190 -29q58 0 94 15q88 38 88 299zM1042 508q0 -133 -12.5 -204.5t-44.5 -131.5q-52 -98 -155 -148.5t-238 -50.5q-91 0 -186 21v-328q0 -48 -17.5 -71t-62.5 -23h-74 q-42 0 -64 7t-33.5 27t-11.5 60v1653q0 52 21 71t69 19h93q43 0 61.5 -27t18.5 -63v-404q178 97 305 97q136 0 215 -78q65 -63 90.5 -167.5t25.5 -258.5z"></glyph><glyph glyph-name="ydieresis" unicode="ÿ" d="M985 922q0 -16 -12 -48l-445 -1234q-13 -38 -34 -50t-66 -12h-102q-72 0 -72 53q0 17 14 50l154 362l-336 850q-8 16 -8 33q0 25 23 40t49 15h92q62 0 82.5 -11t31.5 -46l185 -580l174 557q15 47 39.5 63.5t72.5 16.5h88q30 0 50 -14t20 -45zM483 1259q0 -26 -17.5 -43.5 t-41.5 -17.5h-134q-23 0 -41 18t-18 43v137q0 26 17 45t42 19h134q25 0 42 -18.5t17 -45.5v-137zM868 1259q0 -26 -17.5 -43.5t-41.5 -17.5h-134q-23 0 -41 18t-18 43v137q0 26 17 45t42 19h134q25 0 42 -18.5t17 -45.5v-137z"></glyph><glyph glyph-name="Cacute" unicode="Ć" d="M1059 55q0 -35 -23 -51t-84 -20q-35 -2 -82 -5.5t-70 -4.5t-81 -1q-139 0 -242 25q-135 33 -212 122t-106.5 222.5t-29.5 325.5q0 224 35.5 364t107 216t179 105t268.5 29q86 0 233 -10q63 -4 85 -20t22 -52v-67q0 -57 -14.5 -77.5t-63.5 -20.5q-16 0 -84 5t-137 5 q-68 0 -128 -6.5t-95 -22.5q-57 -26 -84 -84.5t-34 -138t-7 -227.5q0 -100 5.5 -171.5t24.5 -129.5t57.5 -94.5t102.5 -49.5q62 -10 158 -10q42 0 109.5 5t111.5 5q49 0 63.5 -20t14.5 -78v-68zM995 1827q0 -13 -22 -43q-48 -56 -101 -118q-100 -121 -133 -136 q-30 -12 -57 -12h-68q-48 0 -71 6.5t-23 34.5q0 7 16 35q40 64 114 159.5t91 108.5q15 12 92 12q105 0 133.5 -12t28.5 -35z"></glyph><glyph glyph-name="cacute" unicode="ć" d="M868 57q0 -39 -17.5 -53t-94.5 -22q-75 -9 -174 -9q-141 0 -230.5 23.5t-141 80t-73.5 155.5t-22 260t22 260t73 155t141 80.5t231 24.5q77 0 174 -11q51 -4 76 -12t30.5 -19.5t5.5 -37.5v-4v-4q0 -93 -22 -127q-18 -29 -51 -29q-11 0 -112.5 12.5t-162.5 12.5 q-67 0 -86.5 -19t-34.5 -78q-16 -71 -16 -204q0 -87 8 -197q5 -60 30.5 -81t98.5 -21q56 0 161 12t114 12q30 0 49 -20q8 -9 16 -50.5t8 -89.5zM865 1511q0 -13 -22 -43q-48 -56 -101 -118q-100 -121 -133 -136q-30 -12 -57 -12h-68q-48 0 -71 6.5t-23 34.5q0 7 16 35 q40 64 114 159.5t91 108.5q15 12 92 12q105 0 133.5 -12t28.5 -35z"></glyph><glyph glyph-name="Ccaron" unicode="Č" d="M1059 55q0 -35 -23 -51t-84 -20q-35 -2 -82 -5.5t-70 -4.5t-81 -1q-139 0 -242 25q-135 33 -212 122t-106.5 222.5t-29.5 325.5q0 224 35.5 364t107 216t179 105t268.5 29q86 0 233 -10q63 -4 85 -20t22 -52v-67q0 -57 -14.5 -77.5t-63.5 -20.5q-16 0 -84 5t-137 5 q-68 0 -128 -6.5t-95 -22.5q-57 -26 -84 -84.5t-34 -138t-7 -227.5q0 -100 5.5 -171.5t24.5 -129.5t57.5 -94.5t102.5 -49.5q62 -10 158 -10q42 0 109.5 5t111.5 5q49 0 63.5 -20t14.5 -78v-68zM988 1866q0 -16 -14 -37l-146 -201q-39 -54 -59 -69q-18 -17 -102 -17 q-57 0 -73.5 3t-29.5 14q-20 15 -59 69l-146 201q-14 21 -14 37q0 15 33 30t104 15q32 0 47 -6q18 -7 32.5 -26.5t41.5 -61.5q19 -29 64 -86q48 63 63 86t28.5 43t24 30.5t21.5 14.5q15 6 47 6q72 0 104.5 -15t32.5 -30z"></glyph><glyph glyph-name="ccaron" unicode="č" d="M868 57q0 -39 -17.5 -53t-94.5 -22q-75 -9 -174 -9q-141 0 -230.5 23.5t-141 80t-73.5 155.5t-22 260t22 260t73 155t141 80.5t231 24.5q77 0 174 -11q51 -4 76 -12t30.5 -19.5t5.5 -37.5v-4v-4q0 -93 -22 -127q-18 -29 -51 -29q-11 0 -112.5 12.5t-162.5 12.5 q-67 0 -86.5 -19t-34.5 -78q-16 -71 -16 -204q0 -87 8 -197q5 -60 30.5 -81t98.5 -21q56 0 161 12t114 12q30 0 49 -20q8 -9 16 -50.5t8 -89.5zM853 1524q0 -16 -14 -37l-146 -201q-39 -54 -59 -69q-18 -17 -102 -17q-57 0 -73.5 3t-29.5 14q-20 15 -59 69l-146 201 q-14 21 -14 37q0 15 33 30t104 15q32 0 47 -6q18 -7 32.5 -26.5t41.5 -61.5q19 -29 64 -86q48 63 63 86t28.5 43t24 30.5t21.5 14.5q15 6 47 6q72 0 104.5 -15t32.5 -30z"></glyph><glyph glyph-name="dcroat" unicode="đ" d="M1122 1188q0 -43 -17 -59.5t-77 -16.5h-20v-1020q0 -92 -82 -92h-95q-56 0 -75 47q-147 -74 -271 -74q-119 0 -203 60t-125.5 171.5t-41.5 264.5q0 273 108 407t330 134q79 0 192 -17v119h-206q-50 0 -70 14.5t-20 47.5v47q0 55 90 55h206v45q0 50 21 69t70 19h90 q43 0 62.5 -26.5t19.5 -61.5v-45h20q94 0 94 -55v-33zM745 283v483q-106 27 -200 27q-54 0 -82 -17q-84 -50 -84 -332q0 -131 39 -194q39 -62 110 -62q47 0 106 25t111 70z"></glyph><glyph glyph-name="dotlessi" unicode="ı" d="M416 88q0 -88 -82 -88h-78q-59 0 -84 16.5t-25 71.5v780q0 47 21.5 65.5t69.5 18.5h96q42 0 62 -25.5t20 -58.5v-780z"></glyph><glyph glyph-name="Lslash" unicode="Ł" d="M1139 84q0 -84 -86 -84h-574q-51 0 -75.5 19.5t-24.5 70.5v369l-72 -74q-25 -25 -57 -25q-33 0 -53 23l-37 41q-33 39 -33 68q0 30 31 61l221 223v508q0 53 27.5 68.5t72.5 15.5h86q88 0 88 -84v-235l138 139q29 29 61 29q33 0 57 -27l41 -43q23 -26 23 -60 q0 -38 -23 -59l-297 -297v-500q278 5 400 5q56 0 71 -25.5t15 -71.5v-55z"></glyph><glyph glyph-name="lslash" unicode="ł" d="M815 987l-246 -270v-625q0 -92 -84 -92h-73q-42 0 -64 6.5t-32.5 26t-10.5 59.5v348l-47 -55q-22 -25 -55 -25t-53 23l-39 41q-27 26 -27 59q0 35 27 62l194 211v565q0 50 21 69t69 19h90q44 0 64 -26.5t20 -61.5v-287l95 109q23 26 55 26q35 0 61 -26l35 -35 q25 -25 25 -59q0 -35 -25 -62z"></glyph><glyph glyph-name="OE" unicode="Œ" d="M874 242v884q-44 4 -114 4q-147 0 -213 -26q-63 -25 -92 -78.5t-36 -127.5t-7 -214v-18q0 -144 14.5 -227t58 -129.5t129.5 -61.5q65 -10 146 -10q70 0 114 4zM1696 84q0 -84 -86 -84h-891q-142 0 -242 25q-103 25 -171.5 79.5t-106.5 135.5t-54 185.5t-16 244.5 q0 223 35.5 361.5t107 211.5t178.5 99t269 26h891q86 0 86 -84v-55q0 -45 -15 -70.5t-71 -25.5q-276 0 -461 6v-320q76 2 158.5 3.5t116 2t141.5 0.5q56 0 71 -25t15 -71v-29q0 -45 -15 -70.5t-71 -25.5q-108 0 -141.5 0.5t-116 2t-158.5 3.5v-381q215 7 461 7 q56 0 71 -25.5t15 -71.5v-55z"></glyph><glyph glyph-name="oe" unicode="œ" d="M791 492q0 168 -37 237q-19 37 -52 51.5t-116 14.5q-82 0 -115.5 -14t-52.5 -52q-39 -70 -39 -237q0 -168 39 -238q20 -36 53 -50t115 -14q83 0 116 14.5t52 49.5q37 69 37 238zM1384 588v39q0 104 -29 142t-128 38q-73 0 -111.5 -19t-52.5 -60.5t-14 -121.5v-18h335z M1634 532q0 -53 -6.5 -80.5t-23.5 -35.5t-56 -8h-499v-29q0 -72 14 -118.5t53 -63.5q51 -23 123 -23q102 0 250 33q7 1 21 5t26 6.5t25 2.5q21 0 35 -19t20 -44q4 -19 4 -60v-8q0 -40 -14.5 -61.5t-59.5 -28.5q-150 -27 -309 -27q-226 0 -332 97q-115 -97 -319 -97 q-234 0 -346 119q-64 67 -94.5 165.5t-30.5 234.5q0 137 30.5 235.5t94.5 165.5q112 119 346 119q206 0 319 -94q98 94 322 94q125 0 205.5 -31t126.5 -96q43 -62 59 -150t16 -203z"></glyph><glyph glyph-name="Scaron" unicode="Š" d="M987 422q0 -93 -7.5 -167.5t-31.5 -119.5q-51 -96 -162 -124.5t-262 -28.5q-142 0 -301 14q-42 5 -65 13t-32 22t-9 37v69q0 58 15.5 78.5t62.5 20.5q64 0 164 -8.5t196 -8.5q75 0 107 8t44.5 35.5t12.5 89.5q0 108 -10 132.5t-62 45.5q-205 86 -258 109 q-119 52 -168 89.5t-68.5 100.5t-19.5 187q0 62 8.5 113t29.5 92.5t62 75t103 53.5q55 17 122.5 24.5t162.5 7.5q84 0 231 -10q63 -4 86 -20t23 -52v-67q0 -56 -15.5 -77t-64.5 -21q-30 0 -65.5 3t-100 6t-203.5 3q-74 0 -92.5 -27.5t-18.5 -103.5v-19q0 -42 4 -60.5 t17.5 -31t50.5 -28.5l77 -33l91 -39q162 -68 227.5 -107.5t92 -99.5t26.5 -176zM909 1866q0 -16 -14 -37l-146 -201q-39 -54 -59 -69q-18 -17 -102 -17q-57 0 -73.5 3t-29.5 14q-20 15 -59 69l-146 201q-14 21 -14 37q0 15 33 30t104 15q32 0 47 -6q18 -7 32.5 -26.5 t41.5 -61.5q19 -29 64 -86q48 63 63 86t28.5 43t24 30.5t21.5 14.5q15 6 47 6q72 0 104.5 -15t32.5 -30z"></glyph><glyph glyph-name="scaron" unicode="š" d="M891 291q0 -127 -35 -194.5t-117 -94.5t-233 -27q-175 0 -293 15q-36 5 -46.5 20t-10.5 74v37q0 40 12 69q11 25 47 25q8 0 59 -6.5t110.5 -11t150.5 -4.5q63 0 82.5 14t19.5 61q0 56 -12 68q-14 14 -69 31t-141 45t-136 53q-54 26 -85.5 56.5t-46 73.5t-14.5 101 q0 158 72 230q51 51 138 66.5t255 15.5q100 0 152 -4q56 -3 79 -23t23 -78q0 -72 -8 -88q-21 -39 -68 -39q-11 0 -94.5 8.5t-175.5 8.5q-53 0 -78 -4.5t-33 -21t-8 -54.5q0 -28 10 -41q10 -12 56 -29.5t103 -34.5t99 -30q86 -29 136 -61t75 -84.5t25 -141.5zM826 1524 q0 -16 -14 -37l-146 -201q-39 -54 -59 -69q-18 -17 -102 -17q-57 0 -73.5 3t-29.5 14q-20 15 -59 69l-146 201q-14 21 -14 37q0 15 33 30t104 15q32 0 47 -6q18 -7 32.5 -26.5t41.5 -61.5q19 -29 64 -86q48 63 63 86t28.5 43t24 30.5t21.5 14.5q15 6 47 6q72 0 104.5 -15 t32.5 -30z"></glyph><glyph glyph-name="Ydieresis" unicode="Ÿ" d="M1190 1300q0 -34 -29 -79l-389 -691v-440q0 -90 -88 -90h-88q-52 0 -75 19.5t-23 70.5v424l-410 729q-20 35 -20 60q0 34 24 49.5t55 15.5h111q44 0 65 -14t37 -45l277 -502l283 504q16 31 37.5 44t64.5 13h90q38 0 58 -18.5t20 -49.5zM565 1613q0 -26 -17.5 -43.5 t-41.5 -17.5h-134q-23 0 -41 18t-18 43v137q0 26 17 45t42 19h134q25 0 42 -18.5t17 -45.5v-137zM950 1613q0 -26 -17.5 -43.5t-41.5 -17.5h-134q-23 0 -41 18t-18 43v137q0 26 17 45t42 19h134q25 0 42 -18.5t17 -45.5v-137z"></glyph><glyph glyph-name="Zcaron" unicode="Ž" d="M1092 1315q0 -35 -31 -88l-615 -1010q420 19 545 19q56 0 71 -25.5t15 -71.5v-55q0 -84 -86 -84h-823q-36 0 -59 21t-23 57q0 40 35 98l586 965q-156 -4 -268.5 -6t-219.5 -2q-56 0 -72 26.5t-16 69.5v55q0 84 88 84h807q66 0 66 -53zM948 1870q0 -16 -14 -37l-146 -201 q-39 -54 -59 -69q-18 -17 -102 -17q-57 0 -73.5 3t-29.5 14q-20 15 -59 69l-146 201q-14 21 -14 37q0 15 33 30t104 15q32 0 47 -6q18 -7 32.5 -26.5t41.5 -61.5q19 -29 64 -86q48 63 63 86t28.5 43t24 30.5t21.5 14.5q15 6 47 6q72 0 104.5 -15t32.5 -30z"></glyph><glyph glyph-name="zcaron" unicode="ž" d="M905 86q0 -86 -88 -86h-631q-35 0 -57.5 20t-22.5 54v35q0 41 35 90l422 577q-254 -18 -340 -18q-56 0 -72 26.5t-16 69.5v41q0 86 88 86h598q33 0 51.5 -16.5t18.5 -49.5v-61q0 -36 -25 -70l-426 -577q238 16 377 16q56 0 72 -26t16 -70v-41zM855 1524q0 -16 -14 -37 l-146 -201q-39 -54 -59 -69q-18 -17 -102 -17q-57 0 -73.5 3t-29.5 14q-20 15 -59 69l-146 201q-14 21 -14 37q0 15 33 30t104 15q32 0 47 -6q18 -7 32.5 -26.5t41.5 -61.5q19 -29 64 -86q48 63 63 86t28.5 43t24 30.5t21.5 14.5q15 6 47 6q72 0 104.5 -15t32.5 -30z"></glyph><glyph glyph-name="florin" unicode="ƒ" d="M1018 1239q0 -63 -14 -80.5t-48 -17.5q-6 0 -53 8t-84 8q-39 0 -65 -16q-27 -17 -41 -58.5t-31 -130.5h106q48 0 71.5 -17.5t23.5 -62.5v-26q0 -60 -18 -83.5t-77 -23.5h-147l-113 -618q-25 -141 -45 -208t-57 -118q-83 -112 -258 -112q-61 0 -90 12q-39 14 -39 74v59 q0 48 24 60t76 12q54 0 75 38t42 152l119 649h-47q-50 0 -70 21t-20 67v45q0 42 27 61t63 19h88q24 120 44 191.5t54 122.5q82 120 285 120q21 0 63 -5t66 -7q45 -5 67.5 -21t22.5 -59v-55z"></glyph><glyph glyph-name="circumflex" unicode="ˆ" d="M643 1159q0 -15 -32.5 -30t-104.5 -15q-32 0 -47 6q-11 4 -21.5 14.5t-24 31t-28.5 42.5q-15 23 -63 86q-45 -57 -64 -86q-33 -50 -44.5 -65.5t-29.5 -22.5q-15 -6 -47 -6q-71 0 -104 15t-33 30q0 16 14 37l146 201q39 54 59 69q11 11 28.5 14t74.5 3q84 0 102 -17 q20 -15 59 -69l146 -201q14 -21 14 -37z"></glyph><glyph glyph-name="caron" unicode="ˇ" d="M643 1450q0 -16 -14 -37l-146 -201q-39 -54 -59 -69q-18 -17 -102 -17q-57 0 -73.5 3t-29.5 14q-20 15 -59 69l-146 201q-14 21 -14 37q0 15 33 30t104 15q32 0 47 -6q18 -7 32.5 -26.5t41.5 -61.5q19 -29 64 -86q48 63 63 86t28.5 43t24 30.5t21.5 14.5q15 6 47 6 q72 0 104.5 -15t32.5 -30z"></glyph><glyph glyph-name="macron" unicode="ˉ" d="M596 1241q0 -61 -15 -82.5t-71 -21.5h-426q-47 0 -65.5 20.5t-18.5 65.5v30q0 40 26 60t58 20h426q86 0 86 -80v-12z"></glyph><glyph glyph-name="breve" unicode="˘" d="M664 1432q0 -90 -43.5 -163t-120 -114t-166.5 -41q-92 0 -169 41t-121 113.5t-44 163.5q0 43 20 59t91 16q42 0 56.5 -13t14.5 -42q0 -84 35 -131t117 -47q83 0 117 46t34 132q0 33 19 44t51 11q70 0 89.5 -16t19.5 -59z"></glyph><glyph glyph-name="dotaccent" unicode="˙" d="M268 1184q0 -45 -18 -67.5t-64 -22.5h-77q-42 0 -64 6t-33.5 26t-11.5 58v69q0 49 21.5 67.5t68.5 18.5h96q44 0 63 -25t19 -61v-69z"></glyph><glyph glyph-name="ring" unicode="˚" d="M262 1290q0 34 -23 58t-57 24q-33 0 -55.5 -24.5t-22.5 -57.5q0 -32 23 -56t55 -24q33 0 56.5 24.5t23.5 55.5zM365 1290q0 -79 -53.5 -133.5t-129.5 -54.5q-72 0 -127 56t-55 132q0 78 53.5 133.5t128.5 55.5q77 0 130 -55t53 -134z"></glyph><glyph glyph-name="tilde" unicode="˜" d="M715 1354q0 -20 -21 -64q-72 -151 -202 -151q-34 0 -61 7t-73 23.5t-71 24.5t-47 8q-20 0 -25.5 -4.5t-20 -21t-34.5 -31.5t-58 -15h-67q-35 0 -35 35t29 84q81 150 198 150q33 0 67.5 -8t74 -21.5t69 -23t47.5 -9.5q23 0 45 24t33 32t33 8h61q58 0 58 -47z"></glyph><glyph glyph-name="uniF006" unicode="π" d="M505 916v-916h-180v916h-280v146h1324v-146h-242v-916h-180v916h-442z"></glyph><glyph glyph-name="uniF006" unicode="" d="M505 916v-916h-180v916h-280v146h1324v-146h-242v-916h-180v916h-442z"></glyph><glyph glyph-name="endash" unicode="–" d="M1071 477q0 -41 -6 -62.5t-25 -31.5t-57 -10h-879q-46 0 -65 20t-19 66v59q0 42 25 60t59 18h879q88 0 88 -78v-41z"></glyph><glyph glyph-name="emdash" unicode="—" d="M2060 477q0 -41 -6 -62.5t-25 -31.5t-57 -10h-1868q-46 0 -65 20t-19 66v59q0 42 25 60t59 18h1868q88 0 88 -78v-41z"></glyph><glyph glyph-name="quoteleft" unicode="‘" d="M453 1096q0 -22 -27.5 -42t-62 -32t-48.5 -12q-51 0 -82 51q-18 31 -44 74.5t-46.5 78.5t-35.5 64t-29 59q-10 28 -10 29q0 32 27.5 45.5t56.5 13.5h77q38 0 58.5 -15t38.5 -52l104 -195q23 -46 23 -67z"></glyph><glyph glyph-name="quoteright" unicode="’" d="M465 1366q0 -19 -10 -39q-26 -52 -75 -133.5t-79 -132.5q-29 -51 -82 -51q-28 0 -82.5 27t-54.5 59q0 23 22 67l105 195q21 39 40 53t56 14h78q29 0 55.5 -13.5t26.5 -45.5z"></glyph><glyph glyph-name="quotesinglbase" unicode="‚" d="M467 115q0 -13 -12 -37q-26 -52 -75 -133.5t-79 -132.5q-30 -52 -80 -52q-28 0 -83.5 26.5t-55.5 57.5q0 22 22 68l105 194q23 42 40.5 56t55.5 14h78q28 0 56 -14t28 -47z"></glyph><glyph glyph-name="quotedblleft" unicode="“" d="M453 1096q0 -22 -27.5 -42t-62 -32t-48.5 -12q-51 0 -82 51q-18 31 -44 74.5t-46.5 78.5t-35.5 64t-29 59q-10 28 -10 29q0 32 27.5 45.5t56.5 13.5h77q38 0 58.5 -15t38.5 -52l104 -195q23 -46 23 -67zM862 1096q0 -21 -27.5 -41.5t-62.5 -32.5t-49 -12q-26 0 -44 11.5 t-36 39.5q-30 49 -57 92.5t-53.5 89.5t-47.5 94q-8 22 -8 29q0 32 27.5 45.5t56.5 13.5h78q37 0 57 -14t39 -53l103 -195q24 -48 24 -67z"></glyph><glyph glyph-name="quotedblright" unicode="”" d="M465 1366q0 -19 -10 -39q-26 -52 -75 -133.5t-79 -132.5q-29 -51 -82 -51q-28 0 -82.5 27t-54.5 59q0 23 22 67l105 195q21 39 40 53t56 14h78q29 0 55.5 -13.5t26.5 -45.5zM874 1366q0 -15 -12 -39q-26 -52 -68.5 -123t-84.5 -143q-31 -51 -80 -51q-29 0 -84.5 27 t-55.5 59q0 21 23 67l104 195q20 38 41 52.5t58 14.5h76q29 0 56 -13.5t27 -45.5z"></glyph><glyph glyph-name="quotedblbase" unicode="„" d="M467 115q0 -13 -12 -37q-26 -52 -75 -133.5t-79 -132.5q-30 -52 -80 -52q-28 0 -83.5 26.5t-55.5 57.5q0 22 22 68l105 194q23 42 40.5 56t55.5 14h78q28 0 56 -14t28 -47zM887 115q0 -15 -13 -37q-20 -41 -71.5 -128t-81.5 -138q-31 -52 -82 -52q-15 0 -48.5 11.5 t-61 30.5t-27.5 42q0 22 22 68l105 194q21 42 39.5 56t56.5 14h78q27 0 55.5 -14t28.5 -47z"></glyph><glyph glyph-name="dagger" unicode="†" d="M997 897q0 -58 -18 -82t-76 -24h-219v-701q0 -45 -17.5 -67.5t-62.5 -22.5h-74q-41 0 -63.5 6t-33.5 26t-11 58v701h-221q-51 0 -71.5 21t-20.5 67v45q0 42 28 59.5t64 17.5h221v281q0 49 21.5 67.5t68.5 18.5h92q43 0 61.5 -25.5t18.5 -60.5v-281h219q48 0 71 -16.5 t23 -60.5v-27z"></glyph><glyph glyph-name="daggerdbl" unicode="‡" d="M997 469q0 -57 -17.5 -79.5t-76.5 -22.5h-219v-277q0 -45 -17.5 -67.5t-62.5 -22.5h-74q-41 0 -63.5 6t-33.5 26t-11 58v277h-221q-51 0 -71.5 20.5t-20.5 65.5v45q0 42 29 61t63 19h221v213h-221q-51 0 -71.5 21t-20.5 67v45q0 42 28 59.5t64 17.5h221v281 q0 49 21.5 67.5t68.5 18.5h92q43 0 61.5 -25.5t18.5 -60.5v-281h219q48 0 71 -16.5t23 -60.5v-27q0 -58 -18 -82t-76 -24h-219v-213h219q94 0 94 -80v-29z"></glyph><glyph glyph-name="bullet" unicode="•" d="M750 643q0 -85 -43.5 -161t-116.5 -120.5t-156 -44.5q-131 0 -223 94.5t-92 231.5q0 90 41.5 164t114 118t159.5 44q85 0 158 -44t115.5 -119t42.5 -163z"></glyph><glyph glyph-name="ellipsis" unicode="…" d="M485 98l-141 -139q-17 -14 -31 -14t-32 14l-142 139q-14 11 -14 33q0 21 14 35l142 141q15 15 30 15q18 0 33 -15l141 -141q15 -14 15 -35q0 -22 -15 -33zM1079 98l-141 -139q-17 -14 -31 -14t-33 14l-141 139q-14 11 -14 33q0 21 14 35l141 141q17 15 31 15q18 0 33 -15 l141 -141q15 -14 15 -35q0 -22 -15 -33zM1673 98l-141 -139q-17 -14 -31 -14t-33 14l-141 139q-14 11 -14 33q0 21 14 35l141 141q17 15 31 15q18 0 33 -15l141 -141q15 -15 15 -35q0 -21 -15 -33z"></glyph><glyph glyph-name="perthousand" unicode="‰" d="M467 1032q0 126 -27 170q-17 33 -90 33q-74 0 -90 -33q-24 -48 -24 -168q0 -118 24 -168q16 -32 90 -32q72 0 90 32q27 52 27 166zM657 1034q0 -109 -27.5 -188.5t-97.5 -126.5t-186 -47q-114 0 -181 47.5t-93.5 128t-26.5 186.5q0 107 27 187t95 127t181 47 q89 0 149.5 -27t95 -74.5t49.5 -113t15 -146.5zM1483 334q0 125 -25 168q-18 33 -90 33q-75 0 -92 -33q-23 -48 -23 -168t23 -168q16 -33 92 -33q73 0 90 33q25 48 25 168zM1675 336q0 -169 -70 -266t-241 -97q-114 0 -181.5 47t-94.5 127t-27 187q0 362 305 362 q170 0 239.5 -96t69.5 -264zM2290 334q0 123 -25 168q-18 33 -90 33q-75 0 -92 -33q-23 -44 -23 -168t23 -168q16 -33 92 -33q73 0 90 33q25 52 25 168zM2482 336q0 -169 -70 -266t-241 -97q-114 0 -181.5 47t-94.5 127t-27 187q0 362 305 362q170 0 239.5 -96t69.5 -264z M1335 1358q0 -16 -8 -29l-745 -1376q-20 -35 -58 -35q-16 0 -22 4l-80 47q-19 11 -19 43q0 19 7 29l747 1376q18 35 55 35q17 0 23 -4l80 -47q20 -11 20 -43z"></glyph><glyph glyph-name="guilsinglleft" unicode="‹" d="M553 162q0 -51 -135 -51q-42 0 -62.5 8t-40.5 35q-20 29 -74.5 108.5t-92 139t-37.5 75.5q0 17 37.5 76.5t90 136t76.5 111.5q18 27 38 35t65 8q135 0 135 -51q0 -13 -10 -33l-170 -283l170 -282q10 -22 10 -33z"></glyph><glyph glyph-name="guilsinglright" unicode="›" d="M532 477q0 -12 -22.5 -50t-50.5 -80.5t-65.5 -97.5t-65.5 -95q-18 -27 -39 -35t-64 -8q-135 0 -135 51q0 11 10 33l170 282l-170 283q-10 20 -10 33q0 51 135 51q46 0 66 -8.5t37 -34.5q24 -35 76.5 -111.5t90 -136t37.5 -76.5z"></glyph><glyph glyph-name="uni2044" unicode="⁄" d="M977 1393q0 -22 -19 -56l-757 -1376q-25 -45 -62 -45q-14 0 -37 12l-57 35q-31 21 -38 29t-7 22q0 23 23 62l759 1376q25 43 60 43q19 0 43 -16l55 -35q37 -25 37 -51z"></glyph><glyph glyph-name="Euro" unicode="€" d="M1101 57q0 -63 -100 -71q-135 -10 -219 -10q-273 0 -400 112q-118 106 -147 354h-119q-73 0 -73 53q0 12 4 35l4 22q14 80 104 80h70v109h-107q-73 0 -73 53q0 12 4 35l4 22q14 80 104 80h82q35 271 172 373q117 88 371 88q84 0 219 -10q100 -8 100 -72v-67 q0 -60 -15 -75t-58 -15q-33 0 -92.5 5t-114.5 5q-172 0 -237.5 -44t-82.5 -188h475q74 0 74 -59q0 -8 -2 -21l-4 -22q-16 -88 -107 -88h-446v-70v-39h422q74 0 74 -59q0 -8 -2 -21l-5 -22q-16 -88 -106 -88h-375q17 -148 86 -195q62 -41 236 -41q55 0 114.5 5.5t92.5 5.5 q57 0 67 -33q6 -19 6 -60v-67z"></glyph><glyph glyph-name="trademark" unicode="™" d="M799 1268q0 -78 -74 -78h-4q-26 1 -77 2.5t-91 1.5v-571q0 -74 -78 -74h-55q-84 0 -84 74v571q-40 0 -91 -1.5t-77 -2.5h-4q-74 0 -74 78v30q0 70 78 70h553q32 0 55 -15t23 -55v-30zM1829 627v-13q0 -65 -84 -65h-55q-71 0 -78 72l-27 354q-3 -7 -7 -19t-9 -22 q-12 -26 -35.5 -77.5t-41.5 -89t-36 -69.5q-22 -39 -35.5 -50t-46.5 -11h-51q-36 0 -45.5 9.5t-28.5 47.5q-14 34 -27 66.5t-37 92t-36 89.5q-1 3 -5 11.5t-6 13t-3 8.5l-27 -344q-7 -82 -76 -82h-57q-84 0 -84 65v13l67 676q7 65 84 65h72q64 0 86 -49q26 -58 160 -387 q43 104 89.5 215.5t72.5 171.5q22 49 84 49h73q78 0 84 -65z"></glyph><glyph glyph-name="uni2126" unicode="Ω" d="M496 160q-108 67 -165 130q-87 96 -134 225.5t-47 286.5q0 196 79.5 360.5t231 252.5t347.5 88q336 0 516 -254q131 -186 131 -448q0 -168 -54 -297.5t-141 -222.5q-53 -58 -149 -121l364 6v-166h-575v177q80 40 124 78q72 61 122 145t75.5 179t25.5 198 q0 138 -49.5 277.5t-150 212.5t-243.5 73q-191 0 -296 -120q-146 -169 -146 -440q0 -217 91 -372.5t251 -227.5v-180h-577v168z"></glyph><glyph glyph-name="onethird" unicode="⅓" d="M1305 1358q0 -8 -3 -15.5t-6 -13.5l-745 -1376q-9 -17 -24 -26t-33 -9q-7 0 -12.5 0.5t-10.5 3.5l-80 47q-11 6 -14.5 18.5t-3.5 24.5q0 17 6 29l747 1376q10 16 23.5 25.5t32.5 9.5q11 0 24.5 -5.5t27 -14t26.5 -17t24 -14.5t16 -18.5t5 -24.5zM446 735q0 -65 -67 -65 h-37q-18 0 -33 2.5t-26 9.5t-17 19.5t-6 33.5v463q-9 -3 -26 -9.5t-25 -6.5q-19 0 -31 8.5t-19 22t-9.5 30t-2.5 31.5q0 23 15.5 35t34.5 20q19 9 42 18t47.5 17t48 13t44.5 5q29 0 48 -18t19 -47v-582zM1657 225q0 -64 -18.5 -109t-53 -73.5t-82.5 -41.5t-108 -13 q-14 0 -38 1.5t-53 5t-58.5 10t-53.5 16t-39.5 23t-15.5 32.5q0 15 4.5 34t13.5 35.5t23 27.5t32 11q7 0 12 -1t11 -3q42 -12 82.5 -22.5t85.5 -10.5q22 0 35.5 4t21 13t10 23.5t2.5 35.5q0 32 -11 42.5t-42 15.5t-61.5 4.5t-61.5 -0.5q-33 0 -50.5 5t-25.5 16.5t-9 30.5 t-1 48q0 26 14 38t34.5 15.5t43 2.5t39.5 -1q29 0 49 0.5t32.5 7.5t18 23t5.5 47q0 20 -4.5 30.5t-13.5 15.5t-22.5 6t-31.5 1q-25 0 -48 -2.5t-48 -5.5q-9 -2 -20.5 -4t-20.5 -2q-21 0 -31.5 9t-15.5 22.5t-7 29.5t-5 31q-2 5 -2 8.5v8.5q0 25 24.5 37.5t56.5 17t64.5 4.5 h48.5q52 0 99 -8.5t83 -30.5t57 -60.5t21 -99.5q0 -38 -9.5 -73t-35.5 -64q44 -29 59 -71t15 -93z"></glyph><glyph glyph-name="twothirds" unicode="⅔" d="M1356 1358q0 -8 -2.5 -15.5t-5.5 -13.5l-746 -1376q-9 -17 -24 -26t-33 -9q-6 0 -12 0.5t-11 3.5l-80 47q-11 6 -14.5 18.5t-3.5 24.5q0 17 6 29l748 1376q9 16 22.5 25.5t32.5 9.5q12 0 25.5 -5.5t27 -14t26 -17t23.5 -14.5t16 -18.5t5 -24.5zM1657 225 q0 -64 -18.5 -109t-53 -73.5t-82.5 -41.5t-108 -13q-14 0 -38 1.5t-53 5t-58.5 10t-53.5 16t-39.5 23t-15.5 32.5q0 15 4.5 34t13.5 35.5t23 27.5t32 11q7 0 12 -1t11 -3q42 -12 82.5 -22.5t85.5 -10.5q22 0 35.5 4t21 13t10 23.5t2.5 35.5q0 32 -11 42.5t-42 15.5 t-61.5 4.5t-61.5 -0.5q-33 0 -50.5 5t-25.5 16.5t-9 30.5t-1 48q0 26 14 38t34.5 15.5t43 2.5t39.5 -1q29 0 49 0.5t32.5 7.5t18 23t5.5 47q0 20 -4.5 30.5t-13.5 15.5t-22.5 6t-31.5 1q-25 0 -48 -2.5t-48 -5.5q-9 -2 -20.5 -4t-20.5 -2q-21 0 -31.5 9t-15.5 22.5t-7 29.5 t-5 31q-2 5 -2 8.5v8.5q0 25 24.5 37.5t56.5 17t64.5 4.5h48.5q52 0 99 -8.5t83 -30.5t57 -60.5t21 -99.5q0 -38 -9.5 -73t-35.5 -64q44 -29 59 -71t15 -93zM614 733q0 -34 -20 -48.5t-51 -14.5h-379q-26 0 -40 7.5t-20 21t-7 31t-1 38.5q0 17 6.5 31.5t17 27.5t22.5 24.5 t24 22.5q16 16 41.5 39t53.5 50.5t56.5 57.5t51 59.5t37 57t14.5 50.5q0 28 -11 38.5t-42 10.5q-26 0 -53 -1.5t-52 -6.5q-15 -3 -29.5 -6.5t-29.5 -3.5q-21 0 -34.5 10t-21 25t-10 33.5t-2.5 35.5q0 28 20.5 41t45.5 18q42 7 83 10t83 3q48 0 91.5 -9.5t77.5 -31.5 t54 -58.5t20 -91.5q0 -62 -23.5 -114.5t-60.5 -99t-82 -87.5t-88 -78q47 2 93.5 3t93.5 1q25 0 39.5 -7.5t21.5 -20t8.5 -30t1.5 -38.5z"></glyph><glyph glyph-name="oneeighth" unicode="⅛" d="M1305 1358q0 -8 -3 -15.5t-6 -13.5l-745 -1376q-9 -17 -24 -26t-33 -9q-7 0 -12.5 0.5t-10.5 3.5l-80 47q-11 6 -14.5 18.5t-3.5 24.5q0 17 6 29l747 1376q10 16 23.5 25.5t32.5 9.5q11 0 24.5 -5.5t27 -14t26.5 -17t24 -14.5t16 -18.5t5 -24.5zM446 735q0 -65 -67 -65 h-37q-18 0 -33 2.5t-26 9.5t-17 19.5t-6 33.5v463q-9 -3 -26 -9.5t-25 -6.5q-19 0 -31 8.5t-19 22t-9.5 30t-2.5 31.5q0 23 15.5 35t34.5 20q19 9 42 18t47.5 17t48 13t44.5 5q29 0 48 -18t19 -47v-582zM1655 193q0 -58 -19 -97t-54.5 -63t-85.5 -34.5t-112 -10.5 q-61 0 -111 10t-85 33.5t-54.5 63t-19.5 98.5q0 40 32.5 85.5t98.5 79.5q-32 19 -54 38t-35.5 40.5t-19.5 46t-6 56.5q0 54 19 90t53 57.5t80.5 30t101.5 8.5q57 0 104 -8.5t80 -30t51.5 -57.5t18.5 -90q0 -32 -8 -57.5t-23 -47t-37.5 -39.5t-51.5 -35q61 -31 99 -69.5 t38 -97.5zM1458 526q0 9 -2 19.5t-8 19t-18 14t-33 5.5h-25q-31 0 -45 -16t-14 -42q0 -21 3.5 -35t11 -23.5t20.5 -18t32 -19.5q17 9 31 16.5t24.5 17t16.5 24t6 38.5zM1473 195q0 21 -6.5 34t-18 23t-27.5 17t-35 16l-34 -17t-28.5 -17.5t-20 -22.5t-7.5 -33 q0 -36 20.5 -50t49.5 -14h37q31 0 50.5 13t19.5 51z"></glyph><glyph glyph-name="threeeighths" unicode="⅜" d="M1337 1358q0 -8 -2.5 -15.5t-5.5 -13.5l-745 -1376q-20 -35 -58 -35q-6 0 -11.5 0.5t-10.5 3.5l-80 47q-11 6 -14.5 18.5t-3.5 24.5q0 17 6 29l747 1376q9 16 23 25.5t32 9.5q12 0 25.5 -5.5t27 -14t26.5 -17t24 -14.5t15.5 -18.5t4.5 -24.5zM1655 193q0 -58 -19 -97 t-54.5 -63t-85.5 -34.5t-112 -10.5q-61 0 -111 10t-85 33.5t-54.5 63t-19.5 98.5q0 40 32.5 85.5t98.5 79.5q-32 19 -54 38t-35.5 40.5t-19.5 46t-6 56.5q0 54 19 90t53 57.5t80.5 30t101.5 8.5q57 0 104 -8.5t80 -30t51.5 -57.5t18.5 -90q0 -32 -8 -57.5t-23 -47 t-37.5 -39.5t-51.5 -35q61 -31 99 -69.5t38 -97.5zM1458 526q0 9 -2 19.5t-8 19t-18 14t-33 5.5h-25q-31 0 -45 -16t-14 -42q0 -21 3.5 -35t11 -23.5t20.5 -18t32 -19.5q17 9 31 16.5t24.5 17t16.5 24t6 38.5zM1473 195q0 21 -6.5 34t-18 23t-27.5 17t-35 16l-34 -17 t-28.5 -17.5t-20 -22.5t-7.5 -33q0 -36 20.5 -50t49.5 -14h37q31 0 50.5 13t19.5 51zM614 895q0 -64 -18.5 -109t-52.5 -73.5t-82.5 -42t-108.5 -13.5q-13 0 -37.5 1.5t-53 5t-58.5 10t-54 16.5t-39.5 23.5t-15.5 31.5q0 15 4.5 34t14 35.5t23.5 28t32 11.5q6 0 11 -1t11 -3 q42 -12 82.5 -22.5t85.5 -10.5q22 0 36 4t21.5 13t10 23.5t2.5 35.5q0 16 -2.5 26t-8.5 16t-16.5 9.5t-25.5 5.5q-31 5 -61.5 4.5t-61.5 -0.5q-33 0 -50.5 5t-25.5 17t-9 31t-1 48q0 26 14 38t34.5 15.5t43 2.5t39.5 -1q29 0 49 0.5t32 7.5t17.5 23t5.5 47q0 20 -4 30.5 t-13 15.5t-22.5 6t-31.5 1q-25 0 -48.5 -2.5t-48.5 -5.5q-9 -2 -20 -4t-20 -2q-21 0 -32 9t-16 22.5t-7 29.5t-5 31q-2 5 -2 8v8q0 25 24.5 38t57 17.5t65 4.5h48.5q52 0 99 -8.5t83 -30.5t57 -60.5t21 -99.5q0 -38 -9.5 -73t-35.5 -64q44 -29 58.5 -71t14.5 -93z"></glyph><glyph glyph-name="fiveeighths" unicode="⅝" d="M1323 1358q0 -8 -2.5 -15.5t-5.5 -13.5l-746 -1376q-18 -35 -57 -35q-6 0 -12 0.5t-11 3.5l-79 47q-11 6 -15 18.5t-4 24.5q0 17 6 29l748 1376q9 16 23 25.5t32 9.5q12 0 25.5 -5.5t27 -14t26.5 -17t24 -14.5t15.5 -18.5t4.5 -24.5zM1655 193q0 -58 -19 -97t-54.5 -63 t-85.5 -34.5t-112 -10.5q-61 0 -111 10t-85 33.5t-54.5 63t-19.5 98.5q0 40 32.5 85.5t98.5 79.5q-32 19 -54 38t-35.5 40.5t-19.5 46t-6 56.5q0 54 19 90t53 57.5t80.5 30t101.5 8.5q57 0 104 -8.5t80 -30t51.5 -57.5t18.5 -90q0 -32 -8 -57.5t-23 -47t-37.5 -39.5 t-51.5 -35q61 -31 99 -69.5t38 -97.5zM1458 526q0 9 -2 19.5t-8 19t-18 14t-33 5.5h-25q-31 0 -45 -16t-14 -42q0 -21 3.5 -35t11 -23.5t20.5 -18t32 -19.5q17 9 31 16.5t24.5 17t16.5 24t6 38.5zM1473 195q0 21 -6.5 34t-18 23t-27.5 17t-35 16l-34 -17t-28.5 -17.5 t-20 -22.5t-7.5 -33q0 -36 20.5 -50t49.5 -14h37q31 0 50.5 13t19.5 51zM604 895q0 -113 -66.5 -175.5t-191.5 -62.5q-18 0 -48 2.5t-62.5 7t-62 10.5t-44.5 13q-9 6 -16 12t-7 17q0 7 1 20.5t3 28.5t3.5 28t3.5 19q3 14 12.5 26.5t26.5 12.5q4 0 14.5 -3t22.5 -6.5t23 -7.5 t17 -6q13 -3 22.5 -5.5t18.5 -4.5t19 -3t24 -1q26 0 45 3t31.5 12t18.5 25t6 42q0 19 -2.5 35t-12.5 33q-9 15 -29.5 15.5t-43.5 0.5q-38 0 -78 -6q-16 -2 -33.5 -4t-34.5 -2q-18 0 -31.5 10t-11.5 29v4l25 321q2 25 12 36t39 11h324q21 0 32 -11t15 -26.5t4 -33.5v-33 q0 -25 -10 -38t-41 -13q-30 0 -55 0.5t-49.5 1t-50 1t-56.5 1.5l-13 -96q9 1 12.5 1.5t6 0.5h5.5h11q28 0 55.5 -1t53.5 -8q42 -8 69.5 -32t44 -57.5t23 -71.5t6.5 -72z"></glyph><glyph glyph-name="seveneighths" unicode="⅞" d="M1274 1358q0 -8 -2.5 -15.5t-5.5 -13.5l-746 -1376q-9 -17 -24 -26t-33 -9q-6 0 -12 0.5t-11 3.5l-80 47q-11 6 -14.5 18.5t-3.5 24.5q0 17 6 29l748 1376q9 16 22.5 25.5t32.5 9.5q12 0 25.5 -5.5t27 -14t26 -17t23.5 -14.5t16 -18.5t5 -24.5zM1655 193q0 -58 -19 -97 t-54.5 -63t-85.5 -34.5t-112 -10.5q-61 0 -111 10t-85 33.5t-54.5 63t-19.5 98.5q0 40 32.5 85.5t98.5 79.5q-32 19 -54 38t-35.5 40.5t-19.5 46t-6 56.5q0 54 19 90t53 57.5t80.5 30t101.5 8.5q57 0 104 -8.5t80 -30t51.5 -57.5t18.5 -90q0 -32 -8 -57.5t-23 -47 t-37.5 -39.5t-51.5 -35q61 -31 99 -69.5t38 -97.5zM1458 526q0 9 -2 19.5t-8 19t-18 14t-33 5.5h-25q-31 0 -45 -16t-14 -42q0 -21 3.5 -35t11 -23.5t20.5 -18t32 -19.5q17 9 31 16.5t24.5 17t16.5 24t6 38.5zM1473 195q0 21 -6.5 34t-18 23t-27.5 17t-35 16l-34 -17 t-28.5 -17.5t-20 -22.5t-7.5 -33q0 -36 20.5 -50t49.5 -14h37q31 0 50.5 13t19.5 51zM612 1339q0 -5 -1 -11t-3 -11l-250 -582q-5 -11 -10 -22.5t-12.5 -21t-18 -15.5t-26.5 -6h-90q-16 0 -27.5 6.5t-11.5 23.5q0 10 5.5 24t8.5 24l209 483q-33 -1 -59 -1.5t-50.5 -1t-50 -1 t-57.5 -0.5q-22 0 -32.5 12t-14 29.5t-3 36.5t0.5 34q0 23 12 33t37 10h387q16 0 27 -0.5t17.5 -4.5t9.5 -13t3 -25z"></glyph><glyph glyph-name="partialdiff" unicode="∂" d="M426 1138l-135 60q70 157 168 225t192 68q76 0 137.5 -39.5t92.5 -90.5q47 -79 69.5 -187t22.5 -248q0 -288 -86.5 -512.5t-233.5 -331.5t-289 -107q-137 0 -222.5 91t-85.5 256q0 226 153 387q197 207 649 215q-4 168 -24 256t-68 135.5t-113 47.5q-62 0 -121 -49.5 t-106 -175.5zM854 796q-244 -14 -357.5 -68t-187 -176.5t-73.5 -248.5q0 -83 51 -137t119 -54q75 0 160 55q117 76 190.5 234.5t97.5 394.5z"></glyph><glyph glyph-name="uni2206" unicode="∆" d="M1227 0h-1200l628 1386zM991 82l-399 967l-440 -967h839z"></glyph><glyph glyph-name="product" unicode="∏" d="M161 1491h1362v-1922h-191v1748h-978v-1748h-193v1922z"></glyph><glyph glyph-name="summation" unicode="∑" d="M139 1491h1237v-164h-988l607 -775l-649 -822h1040v-161h-1264v187l620 788l-603 772v175z"></glyph><glyph glyph-name="minus" unicode="−" d="M1044 432h-940v203h940v-203z"></glyph><glyph glyph-name="fraction" unicode="∕" d="M977 1393q0 -22 -19 -56l-757 -1376q-25 -45 -62 -45q-14 0 -37 12l-57 35q-31 21 -38 29t-7 22q0 23 23 62l759 1376q25 43 60 43q19 0 43 -16l55 -35q37 -25 37 -51z"></glyph><glyph glyph-name="periodcentered" unicode="∙" d="M469 649l-141 -141q-16 -14 -31 -14q-19 0 -33 14l-141 141q-14 14 -14 33q0 21 14 35l141 141q14 14 31 14t33 -14l141 -141q14 -14 14 -33q0 -21 -14 -35z"></glyph><glyph glyph-name="radical" unicode="√" d="M1124 1870l-311 -1948l-496 1022l-198 -92l-35 63l301 152l403 -823h5l258 1626h73z"></glyph><glyph glyph-name="infinity" unicode="∞" d="M689 812q105 132 164 174q80 58 169 58q105 0 196.5 -76t91.5 -245q0 -118 -34 -185.5t-106 -108.5t-148 -41q-89 0 -169 57q-59 43 -164 175q-136 -171 -289 -171q-101 0 -173.5 76.5t-72.5 190.5q0 113 72.5 190t173.5 77q153 0 289 -171zM758 717q87 -135 159 -185 q46 -33 103 -33q76 0 127.5 56t51.5 158q0 106 -52.5 162t-130.5 56q-49 0 -92 -28q-58 -39 -166 -186zM620 716q-80 100 -128 128.5t-92 28.5q-58 0 -96.5 -41t-38.5 -113q0 -71 40 -113.5t97 -42.5q101 0 218 153z"></glyph><glyph glyph-name="integral" unicode="∫" d="M561 1755q0 -29 -12.5 -53t-34 -36.5t-47.5 -12.5q-36 0 -76 35q-20 20 -39 20q-41 0 -41 -63q0 -46 11 -146q18 -204 27 -371t9 -294l-2 -121l-14 -471q-6 -190 -49 -320q-22 -67 -68 -104t-106 -37q-54 0 -86.5 33.5t-32.5 87.5q0 44 25 71t65 27q42 0 70 -33 q13 -14 24 -22t25 -8q39 0 39 61q0 37 -10 119q-20 170 -29 395q-3 104 -6 229q-2 70 -2 154l16 553q6 191 66 317q19 40 63.5 69.5t87.5 29.5q31 0 61.5 -15t48 -41t17.5 -53z"></glyph><glyph glyph-name="approxequal" unicode="≈" d="M51 738v205q106 120 278 120q60 0 125.5 -17t188.5 -70q69 -30 103.5 -38.5t69.5 -8.5q65 0 134.5 39t123.5 98v-212q-64 -60 -129.5 -87t-147.5 -27q-60 0 -114 13.5t-173 67t-198 53.5q-64 0 -120.5 -27.5t-140.5 -108.5zM51 376v205q106 120 278 120q60 0 125.5 -17 t188.5 -70q69 -29 103.5 -38t69.5 -9q65 0 134.5 39t123.5 98v-212q-64 -60 -129.5 -87t-147.5 -27q-60 0 -114 14t-173 67t-198 53q-64 0 -120.5 -27.5t-140.5 -108.5z"></glyph><glyph glyph-name="notequal" unicode="≠" d="M495 417l-194 -445h-136l195 445h-282v168h356l122 277h-478v168h551l196 444h134l-195 -444h282v-168h-356l-121 -277h477v-168h-551z"></glyph><glyph glyph-name="lessequal" unicode="≤" d="M1161 -225h-1198v202h1198v-202zM1157 111l-1194 473v168l1194 471v-242l-801 -313l801 -312v-245z"></glyph><glyph glyph-name="greaterequal" unicode="≥" d="M1141 -225h-1176v202h1176v-202zM1159 584l-1192 -473v245l801 312l-801 313v242l1192 -471v-168z"></glyph><glyph glyph-name="lozenge" unicode="◊" d="M549 1422l418 -713l-418 -709h-111l-391 709l391 713h111zM495 1325l-340 -616l340 -615l359 615z"></glyph><glyph glyph-name="uniF001" unicode="" d="M766 1343v-14q0 -94 -27 -127q-11 -14 -34 -14q-10 0 -58.5 9t-116.5 9q-60 0 -73 -20q-15 -23 -15 -123v-82h205q39 0 53.5 -11.5t14.5 -45.5v-82q0 -46 -16 -62t-58 -16h-199v-672q0 -48 -14.5 -70t-56.5 -22h-129q-35 0 -48.5 17.5t-13.5 62.5v684h-61q-49 0 -49 72 v88q0 33 13.5 45t45.5 12h51v82q0 76 6.5 119.5t17.5 70t29 52.5q50 68 128 94t225 26q114 0 147 -18t33 -64zM1206 92q0 -46 -18 -69t-64 -23h-77q-59 0 -84 17.5t-25 74.5v799q0 51 21.5 70.5t68.5 19.5h96q44 0 63 -27t19 -63v-799zM1206 1219q0 -93 -82 -93h-77 q-60 0 -84.5 18t-24.5 75v71q0 51 21.5 70.5t68.5 19.5h96q44 0 63 -27t19 -63v-71z"></glyph><glyph glyph-name="uniF001" unicode="ﬁ" d="M766 1343v-14q0 -94 -27 -127q-11 -14 -34 -14q-10 0 -58.5 9t-116.5 9q-60 0 -73 -20q-15 -23 -15 -123v-82h205q39 0 53.5 -11.5t14.5 -45.5v-82q0 -46 -16 -62t-58 -16h-199v-672q0 -48 -14.5 -70t-56.5 -22h-129q-35 0 -48.5 17.5t-13.5 62.5v684h-61q-49 0 -49 72 v88q0 33 13.5 45t45.5 12h51v82q0 76 6.5 119.5t17.5 70t29 52.5q50 68 128 94t225 26q114 0 147 -18t33 -64zM1206 92q0 -46 -18 -69t-64 -23h-77q-59 0 -84 17.5t-25 74.5v799q0 51 21.5 70.5t68.5 19.5h96q44 0 63 -27t19 -63v-799zM1206 1219q0 -93 -82 -93h-77 q-60 0 -84.5 18t-24.5 75v71q0 51 21.5 70.5t68.5 19.5h96q44 0 63 -27t19 -63v-71z"></glyph><glyph glyph-name="uniF002" unicode="" d="M766 1343v-14q0 -94 -27 -127q-11 -14 -34 -14q-10 0 -58.5 9t-116.5 9q-60 0 -73 -20q-15 -23 -15 -123v-82h205q39 0 53.5 -11.5t14.5 -45.5v-82q0 -46 -16 -62t-58 -16h-199v-672q0 -48 -14.5 -70t-56.5 -22h-129q-35 0 -48.5 17.5t-13.5 62.5v684h-61q-49 0 -49 72 v88q0 33 13.5 45t45.5 12h51v82q0 76 6.5 119.5t17.5 70t29 52.5q50 68 128 94t225 26q114 0 147 -18t33 -64zM1223 92q0 -92 -82 -92h-74q-58 0 -82 17t-24 75v1227q0 51 21.5 70.5t68.5 19.5h90q42 0 62 -27.5t20 -62.5v-1227z"></glyph><glyph glyph-name="uniF002" unicode="ﬂ" d="M766 1343v-14q0 -94 -27 -127q-11 -14 -34 -14q-10 0 -58.5 9t-116.5 9q-60 0 -73 -20q-15 -23 -15 -123v-82h205q39 0 53.5 -11.5t14.5 -45.5v-82q0 -46 -16 -62t-58 -16h-199v-672q0 -48 -14.5 -70t-56.5 -22h-129q-35 0 -48.5 17.5t-13.5 62.5v684h-61q-49 0 -49 72 v88q0 33 13.5 45t45.5 12h51v82q0 76 6.5 119.5t17.5 70t29 52.5q50 68 128 94t225 26q114 0 147 -18t33 -64zM1223 92q0 -92 -82 -92h-74q-58 0 -82 17t-24 75v1227q0 51 21.5 70.5t68.5 19.5h90q42 0 62 -27.5t20 -62.5v-1227z"></glyph></font>
</defs>
</svg>
